.
Авторизация | Регистрация
Хочешь лучшие торренты? Добавь свой email!
Добавить

Торрент скачать бесплатно

» » Тёмные силы / The Dark (2005) [H.264 / 720p] HDTVRip [Alternate Cut] скачать через торрент бесплатно




    Тёмные силы / The Dark (2005) [H.264 / 720p] HDTVRip [Alternate Cut] скачать через торрент бесплатно

    Опубликовал: Админ | Дата: 21-08-2015, 04:00 | Просмотров: 76

    Производство: Остров Мэн, Великобритания, Германия/Constantin Film, Isle of Man Film Commission, The Film Council
    Жанр: Ужасы, Триллер, Детектив
    Режиссер: Джон Фоусет

    Актеры
    Мария Белло, Шон Бин, Морис Роевз, Софи Стаки, Эбигейл Стоун, Ричард Элфин, Каспер Харви, Элунд Джонс, Гвенит Петти, Робин Гриффит и др.

    Описание фильма

    В попытке сплотить семью, жительница Нью-Йорка Адель возвращается с маленькой дочерью Сарой в Уэльс к мужу. Но уединённый дом на утёсе, как выяснилось, имеет кровавое прошлое, подчинённое тёмным силам, которые властвуют до сих пор…

    Продолжительность: 01: 27: 55
    Качество видео: HDTVRip-AVC
    Перевод: Дублированный
    Язык субтитров: Русский, английский
    Вид субтитров: Вшитые, отключаемые
    Видео: AVC/H.264, 1280x704 (16: 9), 6355 kbps, 25, 000 fps
    Аудио#1: 48 kHz, AC3, 3/2 (L, C, R, l, r) + LFE ch, ~384 kbpsDub
    Аудио#2: 48 kHz, AC3, 3/2 (L, C, R, l, r) + LFE ch, ~384 kbpsMVO
    Аудио#3: 48 kHz, AC3, 3/2 (L, C, R, l, r) + LFE ch, ~384 kbpsOriginal Eng
    Семпл: Скачать
    Общее
    Полное имя: E: ФильмыТёмные силыТёмные силы.2005.HDTVRip.720p.mkv
    Формат: Matroska
    Версия формата: Version 2
    Размер файла: 4, 61 Гбайт
    Продолжительность: 1 ч. 27 м.
    Общий поток: 7511 Кбит/сек
    Название фильма: The Dark (2005) - HDTVRip 720p
    Программа кодирования: mkvmerge v3.4.0 (\'Rapunzel\') сборка от May 15 2010 09: 38: 20
    Библиотека кодирования: libebml v0.8.0 + libmatroska v0.9.0
    Видео
    Идентификатор: 1
    Формат: AVC
    Формат/Информация: Advanced Video Codec
    Профиль формата: High@L4.1
    Параметр CABAC формата: Да
    Параметр ReFrames формата: 5 кадров
    Идентификатор кодека: V_MPEG4/ISO/AVC
    Продолжительность: 1 ч. 27 м.
    Битрейт: 6355 Кбит/сек
    Ширина: 1280 пикселей
    Высота: 704 пикселя
    Соотношение сторон: 16: 9
    Режим частоты кадров: Постоянный
    Частота кадров: 25, 000 кадров/сек
    Цветовое пространство: YUV
    Субдискретизация насыщенности: 4: 2: 0
    Битовая глубина: 8 бит
    Тип развёртки: Прогрессивная
    Бит/(Пиксели*Кадры): 0.282
    Размер потока: 3, 81 Гбайт (83%)
    Библиотека кодирования: x264 core 107 r1772 c9dad9e
    Аудио #1
    Идентификатор: 2
    Формат: AC-3
    Формат/Информация: Audio Coding 3
    Расширение режима: CM (complete main)
    Параметр Endianness формата: Big
    Идентификатор кодека: A_AC3
    Продолжительность: 1 ч. 27 м.
    Вид битрейта: Постоянный
    Битрейт: 384 Кбит/сек
    Каналы: 6 каналов
    Расположение каналов: Front: L C R, Side: L R, LFE
    Частота: 48, 0 КГц
    Метод сжатия: С потерями
    Размер потока: 241 Мбайт (5%)
    Заголовок: Dub
    Язык: Russian
    Default: Да
    Forced: Нет
    Аудио #2
    Идентификатор: 3
    Формат: AC-3
    Формат/Информация: Audio Coding 3
    Расширение режима: CM (complete main)
    Параметр Endianness формата: Big
    Идентификатор кодека: A_AC3
    Продолжительность: 1 ч. 27 м.
    Вид битрейта: Постоянный
    Битрейт: 384 Кбит/сек
    Каналы: 6 каналов
    Расположение каналов: Front: L C R, Side: L R, LFE
    Частота: 48, 0 КГц
    Метод сжатия: С потерями
    Размер потока: 241 Мбайт (5%)
    Заголовок: MVO
    Язык: Russian
    Default: Нет
    Forced: Нет
    Аудио #3
    Идентификатор: 4
    Формат: AC-3
    Формат/Информация: Audio Coding 3
    Расширение режима: CM (complete main)
    Параметр Endianness формата: Big
    Идентификатор кодека: A_AC3
    Продолжительность: 1 ч. 27 м.
    Вид битрейта: Постоянный
    Битрейт: 384 Кбит/сек
    Каналы: 6 каналов
    Расположение каналов: Front: L C R, Side: L R, LFE
    Частота: 48, 0 КГц
    Метод сжатия: С потерями
    Размер потока: 241 Мбайт (5%)
    Заголовок: Original
    Язык: English
    Default: Нет
    Forced: Нет
    Текст #1
    Идентификатор: 5
    Формат: UTF-8
    Идентификатор кодека: S_TEXT/UTF8
    Идентификатор кодека/Информация: UTF-8 Plain Text
    Язык: Russian
    Default: Нет
    Forced: Нет
    Текст #2
    Идентификатор: 6
    Формат: UTF-8
    Идентификатор кодека: S_TEXT/UTF8
    Идентификатор кодека/Информация: UTF-8 Plain Text
    Язык: English
    Default: Нет
    Forced: Нет


    Скриншоты для ознакомления




    Тёмные силы/The Dark (2005) [H.264/720p] HDTVRip [Alternate Cut]
    загрузка...
    Рейтинг →
     (голосов: 1, оценка 3/5, голосовать можно 1 раз )

    Другие торренты по теме:

  • Эдгар Аллан По и др. | Тёмные аллеи 2.0: Тёмные звёзды. Антология мистики и хоррора (2015) [MP3]
  • De.S., Trux | Тёмные культы. Проверка на вирусы сознания (2012) [PDF]
  • Тёмные тайны / Dark Places (2015) WEB-DL [H.264 / 720p-LQ] [EN / EN Sub] скачать через торрент бесплатно
  • Тёмные тайны / Dark Places (2015) WEB-DL [H.264 / 1080p-LQ] [EN / EN Sub] скачать через торрент бесплатно
  • Тёмные тайны / Dark Places (2015) WEB-DL [H.264 / 720p-LQ] [VO] скачать через торрент бесплатно
  • Тёмные тайны / Dark Places (2015) WEB-DL [H.264 / 1080p-LQ] [VO] скачать через торрент бесплатно
  • Мифика: Тёмные времена / Mythica: The Darkspore (2015) HDRip скачать через торрент бесплатно
  • Клайв Баркер и др. | Тёмные аллеи 2.1: Жестокость (2015) [MP3] скачать через торрент бесплатно


    • Комментарии (0):

      Информация

      Информация

        Посетители, находящиеся в группе Гости, не могут оставлять комментарии в данной новости.

        ↓ Меню




        ↓ Опрос

        Вы добавили сайт в закладки?
        Да
        Нет


        Top 10 за месяц (Фильмы)