.
Авторизация | Регистрация
Хочешь лучшие торренты? Добавь свой email!
Добавить

Торрент скачать бесплатно

» » Покажите мне героя / Show Me a Hero (2015) HDTV [H.264 / 720p-LQ] (сезон 1, серии 1-2 из 6) (SDI Media) (обновляемая) скачать через торрент бесплатно




    Покажите мне героя / Show Me a Hero (2015) HDTV [H.264 / 720p-LQ] (сезон 1, серии 1-2 из 6) (SDI Media) (обновляемая) скачать через торрент бесплатно

    Опубликовал: Админ | Дата: 19-08-2015, 04:00 | Просмотров: 330

    Производство: США
    Жанр: драма, криминал, история
    Режиссер: Пол Хаггис

    Актеры
    Оскар Айзек, Карла Кеведо, Джон Бернтал, Альфред Молина, Вайнона Райдер, Джеймс Белуши, Дэвид Уэйн Фокс, Стив Гарфанти, Терри Кинни, Ильфенеш Хадера, Кэтрин Кинер, Натали Пол, Питер Ригерт и др.

    Описание

    Новый мини-сериал НВО от сценариста Прослушки Дэвида Саймона и режиссёра Столкновения Пола Хаггиса.
    Америка, 1980-е. Молодой мэр вынужден построить жильё для малообеспеченных слоёв населения в престижном районе города по распоряжению федерального суда. Это решение поставило крест на его политической карьере и стало причиной волны недовольства горожан, которое вылилось в протесты и беспорядки на улицах города. Основано на реальных событиях.

    Дата мировой премьеры: 16 августа 2015
    Продолжительность: ~00: 55: 00 серия
    Качество видео: HDTV 720p
    Перевод: Многоголосый закадровый, профессиональный -SDI Media по заказу Amedia
    Вид субтитров: Вшитые отключаемые
    Язык субтитров: Русский, английский
    Формат: MKV
    Видео: AVC/H.264, 1280x720 (16: 9), 23.976 fps, ~2878 Kbps, ~0.130 bit/pixel
    Аудио Rus: AC3, 192 kbps, 2 ch, 48 kHz
    Аудио Eng: AC3, 384 kbps, 6 ch, 48 kHz
    Код:
    Общее
    Show Me a Hero - Покажите мне героя. Сезон 1. Amedia. 720pShow.Me.A.Hero.S01E01.HDTV.720p.Amedia.mkv
    Формат : Matroska
    Версия формата : Version 4/Version 2
    Размер файла : 1, 29 Гбайт
    Продолжительность : 52 м.
    Общий поток : 3524 Кбит/сек
    Дата кодирования : UTC 2015-08-18 04:26:10
    Программа кодирования : mkvmerge v6.9.1 (\'Blue Panther\') 64bit built on Apr 18 2014 18:23:38
    Библиотека кодирования : libebml v1.3.0 + libmatroska v1.4.1
    Видео
    Идентификатор : 1
    Формат : AVC
    Формат/Информация : Advanced Video Codec
    Профиль формата :High@L4.1
    Параметр CABAC формата : Да
    Параметр ReFrames формата : 5 кадров
    Идентификатор кодека : V_MPEG4/ISO/AVC
    Продолжительность : 52 м.
    Битрейт : 2878 Кбит/сек
    Ширина : 1280 пикселей
    Высота : 720 пикселей
    Соотношение сторон : 16:9
    Режим частоты кадров : Постоянный
    Частота кадров : 23, 976 кадра/сек
    Цветовое пространство : YUV
    Субдискретизация насыщенности : 4:2:0
    Битовая глубина : 8 бит
    Тип развёртки : Прогрессивная
    Бит/(Пиксели*Кадры) : 0.130
    Размер потока : 1, 06 Гбайт (82%)
    Библиотека кодирования : x264 core 148 r2579 73ae2d1
    Настройки программы : cabac=1/ref=5/deblock=1:0:0/analyse=0x3:0x113/me=umh/subme=8/psy=1/psy_rd=1.00:0.00/mixed_ref=1/me_range=16/chroma_me=1/trellis=1/8x8dct=1/cqm=0/deadzone=21, 11/fast_pskip=1/chroma_qp_offset=-2/threads=22/lookahead_threads=3/sliced_threads=0/nr=0/decimate=1/interlaced=0/bluray_compat=0/constrained_intra=0/bframes=3/b_pyramid=2/b_adapt=2/b_bias=0/direct=3/weightb=1/open_gop=0/weightp=2/keyint=250/keyint_min=23/scenecut=40/intra_refresh=0/rc_lookahead=50/rc=crf/mbtree=1/crf=18.0/qcomp=0.60/qpmin=0/qpmax=69/qpstep=4/ip_ratio=1.40/aq=1:1.00
    Язык : English
    Default : Да
    Forced : Нет
    Цветовой диапазон : Limited
    Коэффициенты матрицы : BT.709
    Аудио #1
    Идентификатор : 2
    Формат : AC-3
    Формат/Информация : Audio Coding 3
    Расширение режима : CM (complete main)
    Параметр Endianness формата : Big
    Идентификатор кодека : A_AC3
    Продолжительность : 52 м.
    Вид битрейта : Постоянный
    Битрейт : 192 Кбит/сек
    Каналы : 2 канала
    Расположение каналов : Front: L R
    Частота : 48, 0 КГц
    Метод сжатия : С потерями
    Размер потока : 72, 1 Мбайт (5%)
    Язык : Russian
    Default : Да
    Forced : Нет
    Аудио #2
    Идентификатор : 3
    Формат : AC-3
    Формат/Информация : Audio Coding 3
    Расширение режима : CM (complete main)
    Параметр Endianness формата : Big
    Идентификатор кодека : A_AC3
    Продолжительность : 52 м.
    Вид битрейта : Постоянный
    Битрейт : 384 Кбит/сек
    Каналы : 6 каналов
    Расположение каналов : Front: L C R, Side: L R, LFE
    Частота : 48, 0 КГц
    Метод сжатия : С потерями
    Размер потока : 144 Мбайт (11%)
    Язык : English
    Default : Нет
    Forced : Нет
    Текст #1
    Идентификатор : 4
    Формат : UTF-8
    Идентификатор кодека : S_TEXT/UTF8
    Идентификатор кодека/Информация : UTF-8 Plain Text
    Язык : Russian
    Default : Нет
    Forced : Нет
    Текст #2
    Идентификатор : 5
    Формат : UTF-8
    Идентификатор кодека : S_TEXT/UTF8
    Идентификатор кодека/Информация : UTF-8 Plain Text
    Язык : English
    Default : Нет
    Forced : Нет


    Скриншоты для ознакомления




    Покажите мне героя/Show Me a Hero (2015) HDTV [H.264/720p-LQ] (сезон 1, серии 1-2 из 6) (SDI Media) (обновляемая)
    загрузка...
    Рейтинг →
     (голосов: 1, оценка 4/5, голосовать можно 1 раз )

    Другие торренты по теме:

  • Покажите мне героя / Show Me a Hero (2015) HDTVRip (сезон 1, серии 1-2 из 6) SDI Media (обновляемая) скачать через торрент бесплатно
  • Покажите мне героя / Show Me a Hero (2015) HDTV [H.264 / 1080i] (сезон 1, серии 1-4 из 6) SDI Media (обновляемая) скачать через торрент бесплатно
  • Дэйв Рэмси | Покажите мне деньги! Полное руководство по управлению бизнесом для предпринимателя-лидера (2013) [EPUB]


    • Комментарии (0):

      Информация

      Информация

        Посетители, находящиеся в группе Гости, не могут оставлять комментарии в данной новости.

        ↓ Меню




        ↓ Опрос

        Вы добавили сайт в закладки?
        Да
        Нет


        Top 10 за месяц (Фильмы)