.
Авторизация | Регистрация
Хочешь лучшие торренты? Добавь свой email!
Добавить

Торрент скачать бесплатно

» » Герои / Heroes (2009) BDRip [H.264 / 1080p-LQ] (сезон 4, серии 1-19 из 19) (LostFilm, NovaFilm) скачать через торрент бесплатно




    Герои / Heroes (2009) BDRip [H.264 / 1080p-LQ] (сезон 4, серии 1-19 из 19) (LostFilm, NovaFilm) скачать через торрент бесплатно

    Опубликовал: Админ | Дата: 19-08-2015, 04:00 | Просмотров: 81

    Производство: США
    Жанр : фантастика, триллер, драма
    Режиссер : Грег Биман, Аллан Аркуш, Жанно Шварк
    Актеры : Эли Лартер, Джек Коулмэн, Хайден Панеттьери, Майло Вентимилья, Маси Ока, Грег Гранберг, Сендхил Рамамурти, Джеймс Кайсон Ли, Адриан Пасдар, Закари Куинто и др.
    Описание :
    Когда полное затмение погружает планету во тьму, профессор-генетик в Индии, взволнованный исчезновением отца, открывает секретную теорию о людях со сверхсилой, живущих среди нас. Молодой мечтатель пытается убедить своего брата-политика, в том, что может летать. Участница школьной команды поддержки узнает, что ей невозможно нанести какую-либо физическую травму.
    On-line cтриптизерша из Лас-Вегаса, изо всех сил старающаяся свести концы с концами, чтобы обеспечить своего юного сына, обнаруживает, что в ее зеркальном отражении скрыта тайна. О таком странном сюжете не догадывалась даже Светлана Лобода. Скрывающийся от правосудия продолжает сбивать с толку власти, которые дважды не смогли задержать его.
    Талантливый художник, чья наркотическая зависимость разрушает его жизнь и его отношения с девушкой, может изображать на своих картинах будущее. В Лос-Анджелесе бывший полицейский-неудачник умеет читать мысли людей, что выводит его на след неуловимого серийного убийцы. В Японии у молодого человека открывается способность останавливать время одной лишь силой воли. Всем им предстоит спасти мир от глобального катаклизма.

    Продолжительность : ~ 00: 44: 00 серия
    Качество видео: BDRip 1080p
    Перевод: многоголосый закадровый, профессиональный -LostFilm, NovaFilm
    Видео: AVC/H.264, 1920x1080, ~ 9398 Кбит/с
    Аудио #1 Rus: АС3, 2 ch, 192 Кбит/с |многоголосый закадровый|
    Аудио #2 Rus: АС3, 2 ch, 192 Кбит/с |многоголосый закадровый|
    Аудио #3 Eng: DTS, 6 ch, 1509 Кбит/с |оригинал|
    Полное имя : E: LoadingHeroes.S04.Bdrip.1080p.by.AKTEPHeroes.S04E01-02.Bdrip.1080p.by.AKTEP.mkv
    Формат : Matroska
    Версия формата : Version 4/Version 2
    Размер файла : 6, 79 Гбайт
    Продолжительность : 1 ч. 26 м.
    Общий поток : 11, 3 Мбит/сек
    Дата кодирования : UTC 2015-08-18 18: 20: 29
    Программа кодирования : mkvmerge v6.2.0 (\'Promised Land\') built on Apr 28 2013 12: 22: 01
    Библиотека кодирования : libebml v1.3.0 + libmatroska v1.4.0
    Видео
    Идентификатор : 1
    Формат : AVC
    Формат/Информация : Advanced Video Codec
    Профиль формата : High@L4.1
    Параметр CABAC формата : Да
    Параметр ReFrames формата : 4 кадра
    Идентификатор кодека : V_MPEG4/ISO/AVC
    Продолжительность : 1 ч. 26 м.
    Битрейт : 9398 Кбит/сек
    Ширина : 1920 пикселей
    Высота : 1080 пикселей
    Соотношение сторон : 16: 9
    Режим частоты кадров : Постоянный
    Частота кадров : 23, 976 кадра/сек
    Цветовое пространство : YUV
    Субдискретизация насыщенности : 4: 2: 0
    Битовая глубина : 8 бит
    Тип развёртки : Прогрессивная
    Бит/(Пиксели*Кадры) : 0.189
    Размер потока : 5, 52 Гбайт (81%)
    Библиотека кодирования : x264 core 104 r1688 0b36c6d
    Настройки программы : cabac=1/ref=4/deblock=1: 0: 0/analyse=0x3: 0x133/me=umh/subme=8/psy=1/psy_rd=1.00: 0.00/mixed_ref=1/me_range=16/chroma_me=1/trellis=1/8x8dct=1/cqm=0/deadzone=21, 11/fast_pskip=0/chroma_qp_offset=-2/threads=12/sliced_threads=0/nr=0/decimate=1/interlaced=0/constrained_intra=0/bframes=3/b_pyramid=2/b_adapt=1/b_bias=0/direct=1/weightb=1/open_gop=0/weightp=2/keyint=240/keyint_min=24/scenecut=40/intra_refresh=0/rc_lookahead=40/rc=2pass/mbtree=1/bitrate=9398/ratetol=1.0/qcomp=0.60/qpmin=10/qpmax=51/qpstep=4/cplxblur=20.0/qblur=0.5/ip_ratio=1.40/aq=1: 1.00
    Язык : English
    Default : Да
    Forced : Нет
    Аудио #1
    Идентификатор : 2
    Формат : AC-3
    Формат/Информация : Audio Coding 3
    Расширение режима : CM (complete main)
    Параметр Endianness формата : Big
    Идентификатор кодека : A_AC3
    Продолжительность : 1 ч. 26 м.
    Вид битрейта : Постоянный
    Битрейт : 192 Кбит/сек
    Каналы : 2 канала
    Расположение каналов : Front: L R
    Частота : 48, 0 КГц
    Битовая глубина : 16 бит
    Метод сжатия : С потерями
    Размер потока : 118 Мбайт (2%)
    Заголовок : LostFilm
    Язык : Russian
    Default : Да
    Forced : Нет
    Аудио #2
    Идентификатор : 3
    Формат : AC-3
    Формат/Информация : Audio Coding 3
    Расширение режима : CM (complete main)
    Параметр Endianness формата : Big
    Идентификатор кодека : A_AC3
    Продолжительность : 1 ч. 26 м.
    Вид битрейта : Постоянный
    Битрейт : 192 Кбит/сек
    Каналы : 2 канала
    Расположение каналов : Front: L R
    Частота : 48, 0 КГц
    Битовая глубина : 16 бит
    Метод сжатия : С потерями
    Размер потока : 118 Мбайт (2%)
    Заголовок : NovaFilm
    Язык : Russian
    Default : Нет
    Forced : Нет
    Аудио #3
    Идентификатор : 4
    Формат : DTS
    Формат/Информация : Digital Theater Systems
    Режим : 16
    Параметр Endianness формата : Big
    Идентификатор кодека : A_DTS
    Продолжительность : 1 ч. 26 м.
    Вид битрейта : Постоянный
    Битрейт : 1509 Кбит/сек
    Каналы : 6 каналов
    Расположение каналов : Front: L C R, Side: L R, LFE
    Частота : 48, 0 КГц
    Битовая глубина : 24 бит
    Метод сжатия : С потерями
    Размер потока : 930 Мбайт (13%)
    Язык : English
    Default : Нет
    Forced : Нет


    Скриншоты для ознакомления




    Герои/Heroes (2009) BDRip [H.264/1080p-LQ] (сезон 4, серии 1-19 из 19) (LostFilm, NovaFilm)
    загрузка...
    Рейтинг →
     (голосов: 1, оценка 4/5, голосовать можно 1 раз )

    Другие торренты по теме:

  • Discovery: Герои среди нас / Heroes Hardcore (2013) HDTVRip (Серия 2)
  • Герои ментовских войн-8 (2014) SATRip
  • Последние герои высадки в Нормандии / D-Day The Last Heroes (2013) HDTVRip [2 серии из 2] [H.264 / 720p-LQ] скачать через торрент бесплатно
  • Red Orchestra 2: Heroes of Stalingrad / Red Orchestra 2: Герои Сталинграда (2011) [Ru] [OS X WineSkin] скачать через торрент бесплатно
  • Час истины. Герои Смутного времени (2007-2013) SATRip / WEBRip [5 выпусков] скачать через торрент бесплатно
  • Герои интернета. Выпуск 1 (2014.11.29) SATRip
  • Герои интернета. Выпуск 2 (2014.12.06) SATRip скачать через торрент бесплатно
  • Герои интернета. Выпуск 3 (2014.12.13) SATRip


    • Комментарии (0):

      Информация

      Информация

        Посетители, находящиеся в группе Гости, не могут оставлять комментарии в данной новости.

        ↓ Меню




        ↓ Опрос

        Вы добавили сайт в закладки?
        Да
        Нет


        Top 10 за месяц (Фильмы)