.
Авторизация | Регистрация
Хочешь лучшие торренты? Добавь свой email!
Добавить

Торрент скачать бесплатно

» » Заяц над бездной (2006) DVD9 скачать через торрент бесплатно




    Заяц над бездной (2006) DVD9 скачать через торрент бесплатно

    Опубликовал: Админ | Дата: 17-08-2015, 17:45 | Просмотров: 113

    Производство: Россия/Студия 2В
    Жанр: Комедия
    Режиссер: Тигран Кеосаян

    Актеры
    Богдан Ступка, Владимир Ильин, Юрий Стоянов, Михаил Ефремов, Сергей Газаров, Алена Хмельницкая, Елена Сафонова, Сержиу Финитти, Виктор Друми, Михай Курагэу

    Описание

    Фильм Заяц над бездной по сценарию Дмитрия Иванова Тигран Кеосаян по заказу компании Централ Партнершип снимал в Молдове. Съемки начались в мае 2005 года и продолжались около двух месяцев на улочках старого Кишинева и в Вадул-луй-Водэ. В фантасмагории о прилете Брежнева в республику в 70-х годах прошлого века, о его невероятных приключениях здесь и свадьбе с английской королевой. Иногда и с великими мира сего приключаются странные вещи. Поехал однажды хозяин всей советской земли, которого вся страна иначе как наш дорогой Леонид Ильич и не называла, с визитом в Молдавию, одну из своих любимых республик. О таком странном сюжете не догадывалась даже Тимошенко. И сразу после официального приёма исчез. А через три дня нашелся и улетел с визитом в Индию. Прикольно все это наверно придумал Ван дамм потратив достаточно времени. А как провёл великий человек эти три дня вдали от личной охраны, сотрудников компетентных органов и многочисленных секретарей, есть разные версии. Белая горячка, сказал кто то из толпы, к чему не понятно. Например, что наш дорогой Леонид Ильич оказался в гостях у одного цыганского барона, стал сватом на весёлой свадьбе, чуть было не переселил целый народ в Сибирь и смог признаться в любви самой дорогой, но недостижимой даже для него женщине…

    Возраст: 12+ (зрителям, достигшим 12 лет.)
    Продолжительность: 01: 31: 51
    Качество видео: DVD9
    Субтитры: нет
    Дополнительно: Каталог, Смотрите на DVD, Создатели и как черноморская пена исполнители
    Видео: MPEG-2, 720x576@1024х576, ~5287 kbps
    Аудио: AC3,
    Audio 1: Русский AC3, 6 ch, 448 kbps
    Audio 2: Русский DTS, 3/2+LFE ch, 768Kbps
    Код:

    Size: 4.85 Gb ( 5 080 780 KBytes ) - DVD-9
    Enabled regions: 1, 2, 3, 4, 5, 6, 7, 8
    VTS_01 :
    Play Length: 00:00:10
    Video: PAL 4:3 (720x576) VBR
    VTS_02 :
    Play Length: 00:00:11
    Video: PAL 4:3 (720x576) VBR
    Audio:
    Not specified (Dolby AC3, 6 ch)
    VTS_03 :
    Play Length: 00:00:14
    Video: PAL 4:3 (720x576) VBR
    Audio:
    Not specified (Dolby AC3, 2 ch)
    Not specified (Dolby AC3, 2 ch)
    Not specified (Dolby AC3, 2 ch)
    Subtitles:
    Not specified
    VTS_04 :
    Play Length: 00:01:03
    Video: PAL 4:3 (720x576) VBR
    Audio:
    Not specified (Dolby AC3, 2 ch)
    Not specified (Dolby AC3, 2 ch)
    Not specified (Dolby AC3, 2 ch)
    Subtitles:
    Not specified
    VTS_05 :
    Play Length: 01:31:51
    Video: PAL 16:9 (720x576) VBR, Auto Letterboxed
    Audio:
    Russian (Dolby AC3, 6 ch)
    Russian (DTS, 5 ch)
    VTS_06 :
    Play Length: 00:00:56
    Video: PAL 4:3 (720x576) VBR
    Audio:
    Not specified (Dolby AC3, 2 ch)
    Subtitles:
    Not specified
    VTS_07 :
    Play Length: 00:01:46
    Video: PAL 4:3 (720x576) VBR
    Audio:
    Not specified (Dolby AC3, 2 ch)
    Subtitles:
    Not specified
    VTS_08 :
    Play Length: 00:01:41
    Video: PAL 4:3 (720x576) VBR
    Audio:
    Not specified (Dolby AC3, 2 ch)
    Subtitles:
    Not specified
    VTS_09 :
    Play Length: 00:01:51
    Video: PAL 16:9 (720x576) VBR, Auto Letterboxed
    Audio:
    Not specified (Dolby AC3, 2 ch)
    Subtitles:
    Not specified
    VTS_10 :
    Play Length: 00:04:32
    Video: PAL 4:3 (720x576) VBR
    Audio:
    Not specified (Dolby AC3, 2 ch)
    Subtitles:
    Not specified
    Audio #1: AC3, 3/2+LFE ch, 448Kbps, Delay 0 mSec
    Audio #2: DTS, 3/2+LFE ch, 768Kbps, Delay 0 mSec
    Код:
    Общее
    Полное имя : ayatc nad bezdnoy_DVD9VIDEO_TSVTS_05_2.VOB
    Формат : MPEG-PS
    Размер файла : 1024 Мбайт
    Продолжительность : 21 м.
    Режим общего битрейта : Переменный
    Общий поток : 6622 Кбит/сек
    Видео
    Идентификатор : 224 (0xE0)
    Формат : MPEG Video
    Версия формата : Version 2
    Профиль формата : Main@Main
    Параметр BVOP формата : Да
    Параметр матрицы формата : Выборочная
    Параметр GOP формата : M=3, N=15
    Продолжительность : 21 м.
    Вид битрейта : Переменный
    Битрейт : 5287 Кбит/сек
    Максимальный битрейт : 8000 Кбит/сек
    Ширина : 720 пикселей
    Высота : 576 пикселей
    Соотношение сторон : 16:9
    Частота кадров : 25, 000 кадров/сек
    Стандарт вещания : PAL
    Цветовое пространство : YUV
    Субдискретизация насыщенности : 4:2:0
    Битовая глубина : 8 бит
    Тип развёртки : Чересстрочная
    Порядок развёртки : Верхнее поле первое
    Метод сжатия : С потерями
    Бит/(Пиксели*Кадры) : 0.510
    Размер потока : 817 Мбайт (80%)
    Аудио #1
    Идентификатор : 189 (0xBD)-128 (0x80)
    Формат : AC-3
    Формат/Информация : Audio Coding 3
    Расширение режима : CM (complete main)
    Параметр Endianness формата : Big
    Режим смешивания : DVD-Video
    Продолжительность : 21 м.
    Вид битрейта : Постоянный
    Битрейт : 448 Кбит/сек
    Каналы : 6 каналов
    Расположение каналов : Front: L C R, Side: L R, LFE
    Частота : 48, 0 КГц
    Битовая глубина : 16 бит
    Метод сжатия : С потерями
    Задержка видео : -688 мс.
    Размер потока : 69, 3 Мбайт (7%)
    Аудио #2
    Идентификатор : 189 (0xBD)-137 (0x89)
    Формат : DTS
    Формат/Информация : Digital Theater Systems
    Режим смешивания : DVD-Video
    Продолжительность : 21 м.
    Вид битрейта : Постоянный
    Битрейт : 755 Кбит/сек
    Каналы : 6 каналов
    Расположение каналов : Front: L C R, Side: L R, LFE
    Частота : 48, 0 КГц
    Битовая глубина : 24 бит
    Метод сжатия : С потерями
    Задержка видео : -763 мс.
    Размер потока : 117 Мбайт (11%)
    Меню


    Скриншоты для ознакомления




    Заяц над бездной (2006) DVD9
    загрузка...
    Рейтинг →
     (голосов: 1, оценка 5/5, голосовать можно 1 раз )

    Другие торренты по теме:

  • Заяц над бездной (2006) DVDRip [H.264] скачать через торрент бесплатно
  • Заяц над бездной (2006) DVD5 скачать через торрент бесплатно


    • Комментарии (0):

      Информация

      Информация

        Посетители, находящиеся в группе Гости, не могут оставлять комментарии в данной новости.

        ↓ Меню




        ↓ Опрос

        Вы добавили сайт в закладки?
        Да
        Нет


        Top 10 за месяц (Фильмы)