.
Авторизация | Регистрация
Хочешь лучшие торренты? Добавь свой email!
Добавить

Торрент скачать бесплатно

» » Особое мнение / Minority Report (2015) HDTVRip (сезон 1, серии 1 из ) NewStudio (обновляемая) скачать через торрент бесплатно




    Особое мнение / Minority Report (2015) HDTVRip (сезон 1, серии 1 из ) NewStudio (обновляемая) скачать через торрент бесплатно

    Опубликовал: Админ | Дата: 17-08-2015, 04:00 | Просмотров: 123

    Производство: США
    Жанр: фантастика, драма
    Режиссер: Марк Майлод

    Актеры
    Миган Гуд, Уилмер Вальдеррама, Ник Зано, Лаура Риган, Старк Сэндс, Коннор Филдинг, Ли Цзюнь Ли, Дэниэл Лондон, Тина Лиффорд, Эндрю Стюарт-Джонс и др.

    Описание

    Спустя 10 лет после событий фильма один из трех Провидцев пытается вести нормальную человеческую жизнь, но по-прежнему преследуется видениями будущего, когда встречает детектива, преследуемую своим прошлым, которая может помочь найти предназначение его дару.

    Дата мировой премьеры: 2015
    Продолжительность: ~00: 44: 00 серия
    Качество видео: HDTVRip
    Перевод: Многоголосый закадровый, профессиональный -NewStudio
    Автор перевода: Юля Мейер
    Видео: XviD, 720x400 (16: 9), ~1440 kb/s
    Аудио Rus: MPEG Layer 3, 48, 0 kHz, 2 ch, 128 kb/s — многоголосый закадровый
    Аудио Eng: MPEG Layer 3, 48, 0 kHz, 2 ch, 128 kb/s — оригинал
    Общее
    Полное имя : D: Особое мнение (сезон любимого сериала 1) Minority Report (2015) HDTVRip - NewStudioMinority.Report.s01e01.HDTVRip.NewStudio.TV.avi
    Формат : AVI
    Формат/Информация : Audio Video Interleave
    Размер файла : 550 Мбайт
    Продолжительность : 44 м.
    Общий поток : 1710 Кбит/сек
    Программа кодирования : VirtualDubMod 1.5.10.2 (build 2540/release)
    Библиотека кодирования : VirtualDubMod build 2540/release
    Видео
    Идентификатор : 0
    Формат : MPEG-4 Visual
    Профиль формата : Advanced Simple@L5
    Параметр BVOP формата : 2
    Параметр QPel формата : Нет
    Параметр GMC формата : Без точки перехода
    Параметр матрицы формата : Default (MPEG)
    Идентификатор кодека : XVID
    Идентификатор кодека/Подсказка : XviD
    Продолжительность : 44 м.
    Битрейт : 1440 Кбит/сек
    Ширина : 720 пикселей
    Высота : 400 пикселей
    Соотношение сторон : 16: 9
    Частота кадров : 23, 976 кадра/сек
    Цветовое пространство : YUV
    Субдискретизация насыщенности : 4: 2: 0
    Битовая глубина : 8 бит
    Тип развёртки : Прогрессивная
    Метод сжатия : С потерями
    Бит/(Пиксели*Кадры) : 0.209
    Размер потока : 463 Мбайт (84%)
    Библиотека кодирования : XviD 73
    Аудио #1
    Идентификатор : 1
    Формат : MPEG Audio
    Версия формата : Version 1
    Профиль формата : Layer 3
    Режим : Joint stereo
    Расширение режима : MS Stereo
    Идентификатор кодека : 55
    Идентификатор кодека/Подсказка : MP3
    Продолжительность : 44 м.
    Вид битрейта : Постоянный
    Битрейт : 128 Кбит/сек
    Каналы : 2 канала
    Частота : 48, 0 КГц
    Метод сжатия : С потерями
    Размер потока : 41, 2 Мбайт (7%)
    Выравнивание : Соединение по промежуткам
    Продолжительность промежутка : 42 мс. (1, 00 видеокадр)
    Время предзагрузки промежутка : 504 мс.
    Аудио #2
    Идентификатор : 2
    Формат : MPEG Audio
    Версия формата : Version 1
    Профиль формата : Layer 3
    Режим : Joint stereo
    Идентификатор кодека : 55
    Идентификатор кодека/Подсказка : MP3
    Продолжительность : 44 м.
    Вид битрейта : Постоянный
    Битрейт : 128 Кбит/сек
    Каналы : 2 канала
    Частота : 48, 0 КГц
    Метод сжатия : С потерями
    Размер потока : 41, 2 Мбайт (7%)
    Выравнивание : Соединение по промежуткам
    Продолжительность промежутка : 42 мс. (1, 00 видеокадр)
    Время предзагрузки промежутка : 504 мс.
    Библиотека кодирования : LAME3.99r
    Настройки программы : -m j -V 4 -q 2 -lowpass 17 -b 128


    Скриншоты для ознакомления




    Особое мнение/Minority Report (2015) HDTVRip (сезон 1, серии 1 из ) NewStudio (обновляемая)
    загрузка...
    Рейтинг →
     (голосов: 1, оценка 3/5, голосовать можно 1 раз )

    Другие торренты по теме:

  • Особое мнение / Minority Report (2002) BDRip [720p] скачать через торрент бесплатно
  • Особое мнение / Minority Report (2002) BDRip [1080p] скачать через торрент бесплатно
  • Особое мнение / Minority Report (2002) BDRip [H.264 / 1080p] скачать через торрент бесплатно
  • Особое мнение / Minority Report (2002) BDRip [H.264] [hand made 60fps] скачать через торрент бесплатно
  • Особое мнение / Minority Report (2015) HDTV [H.264 / 720p-LQ] (сезон 1, серия 1 из ) (NewStudio) (обновляемая) скачать через торрент бесплатно
  • Особое мнение / Minority Report (2015) HDTVRip (сезон 1, серии 1 из ) BaibaKo (обновляемая) скачать через торрент бесплатно
  • Особое мнение / Minority Report (2015) HDTV [H.264 / 1080p] (сезон 1, серия 1 из ) (NewStudio) (обновляемая) скачать через торрент бесплатно
  • Особое мнение / Minority Report (2002) BDRip [H.265 / 1080p]


    • Комментарии (0):

      Информация

      Информация

        Посетители, находящиеся в группе Гости, не могут оставлять комментарии в данной новости.

        ↓ Меню




        ↓ Опрос

        Вы добавили сайт в закладки?
        Да
        Нет


        Top 10 за месяц (Фильмы)