.
Авторизация | Регистрация
Хочешь лучшие торренты? Добавь свой email!
Добавить

Торрент скачать бесплатно

» » Слепое пятно / Слепая зона / Blindspot (2015) HDTV [H.264 / 1080p] (сезон 1, серия 1 из ) NewStudio (обновляемая) скачать через торрент бесплатно




    Слепое пятно / Слепая зона / Blindspot (2015) HDTV [H.264 / 1080p] (сезон 1, серия 1 из ) NewStudio (обновляемая) скачать через торрент бесплатно

    Опубликовал: Админ | Дата: 15-08-2015, 04:00 | Просмотров: 180

    Производство: США
    Жанр: драма, детектив
    Режиссер: Марк Пеллингтон

    Актеры
    Джейми Александер, Салливан Степлтон, Одри Эспарза, Роб Браун, Марианн Жан-Батист, Аквели Роач, Эшли Джонсон, Марко Кака, Орелин Гайя, Карл Ли и др.

    Описание

    В центре сюжета находится потерявшая память девушка, которая оказывается в центре расследования после того, как смогла выбраться из брезентового мешка в самом центе Нью-Йорк Сити на Таймс Сквер. Не имея ни малейшего представления о том, кто она такая, девушка не знает, что обозначают многочисленные загадочные татуировки, которыми покрыто всё её тело. Когда выясняется, что татуировки являются чем-то вроде дорожной карты, к делу подключается ФБР.

    Дата мировой премьеры: 21 сентября 2015
    Продолжительность: ~00: 45: 00 серия
    Качество видео: HDTV 1080p
    Перевод: Многоголосый закадровый, профессиональный -NewStudio
    Автор перевода: Григорий Сенин
    Видео: H.264/AVC, 1920x1080 (16: 9), ~ 19, 2 Мбит/сек
    Аудио Rus: AC3, 48 kHz, 6 ch, 384 kbps - многоголосый закадровый
    Аудио Eng: AC3, 48 kHz, 6 ch, 640 kbps - оригинал
    Код:
    Общее
    Уникальный идентификатор : 173638651960190727685432728179791915345 (0x82A19682AAB08BB4A0B817CEFDC06951)
    Полное имя : F:Blindspot.s01.HDTV.1080p.NewStudio.TVBlindspot.s01e01.HDTV.1080p.NewStudio.TV.mkv
    Формат : Matroska
    Версия формата : Version 4/Version 2
    Размер файла : 6, 24 Гбайт
    Продолжительность : 43 м.
    Общий поток : 20, 6 Мбит/сек
    Дата кодирования : UTC 2015-08-13 17:02:08
    Программа кодирования : mkvmerge v8.2.0 (\'World of Adventure\') 64bit
    Библиотека кодирования : libebml v1.3.1 + libmatroska v1.4.2
    DURATION : 00:43:16.800000000
    NUMBER_OF_FRAMES : 81150
    NUMBER_OF_BYTES : 124646400
    _STATISTICS_WRITING_APP : mkvmerge v8.2.0 (\'World of Adventure\') 64bit
    _STATISTICS_WRITING_DATE_UTC : 2015-08-13 17:02:08
    _STATISTICS_TAGS : BPS DURATION NUMBER_OF_FRAMES NUMBER_OF_BYTES
    Видео
    Идентификатор : 1
    Формат : AVC
    Формат/Информация : Advanced Video Codec
    Профиль формата :High@L4.1
    Параметр CABAC формата : Да
    Параметр ReFrames формата : 4 кадра
    Идентификатор кодека : V_MPEG4/ISO/AVC
    Продолжительность : 43 м.
    Битрейт : 19, 2 Мбит/сек
    Ширина : 1920 пикселей
    Высота : 1080 пикселей
    Соотношение сторон : 16:9
    Режим частоты кадров : Постоянный
    Частота кадров : 23, 976 кадра/сек
    Цветовое пространство : YUV
    Субдискретизация насыщенности : 4:2:0
    Битовая глубина : 8 бит
    Тип развёртки : Прогрессивная
    Бит/(Пиксели*Кадры) : 0.386
    Размер потока : 5, 80 Гбайт (93%)
    Библиотека кодирования : x264 core 146 r2538 121396c
    Настройки программы : cabac=1/ref=4/deblock=1:-2:-2/analyse=0x3:0x133/me=umh/subme=11/psy=1/psy_rd=1.00:0.00/mixed_ref=1/me_range=32/chroma_me=1/trellis=2/8x8dct=1/cqm=0/deadzone=21, 11/fast_pskip=1/chroma_qp_offset=-2/threads=18/lookahead_threads=2/sliced_threads=0/nr=0/decimate=1/interlaced=0/bluray_compat=0/constrained_intra=0/bframes=5/b_pyramid=2/b_adapt=2/b_bias=0/direct=3/weightb=1/open_gop=0/weightp=2/keyint=250/keyint_min=23/scenecut=40/intra_refresh=0/rc_lookahead=60/rc=crf/mbtree=1/crf=17.0/qcomp=0.60/qpmin=0/qpmax=69/qpstep=4/ip_ratio=1.40/aq=1:1.00
    Язык : English
    Default : Нет
    Forced : Нет
    Цветовой диапазон : Limited
    Коэффициенты матрицы : BT.709
    DURATION : 00:43:16.761000000
    NUMBER_OF_FRAMES : 62260
    NUMBER_OF_BYTES : 6363064549
    _STATISTICS_WRITING_APP : mkvmerge v8.2.0 (\'World of Adventure\') 64bit
    _STATISTICS_WRITING_DATE_UTC : 2015-08-13 17:02:08
    _STATISTICS_TAGS : BPS DURATION NUMBER_OF_FRAMES NUMBER_OF_BYTES
    Аудио #1
    Идентификатор : 2
    Формат : AC-3
    Формат/Информация : Audio Coding 3
    Расширение режима : CM (complete main)
    Параметр Endianness формата : Big
    Идентификатор кодека : A_AC3
    Продолжительность : 43 м.
    Вид битрейта : Постоянный
    Битрейт : 384 Кбит/сек
    Каналы : 6 каналов
    Расположение каналов : Front: L C R, Side: L R, LFE
    Частота : 48, 0 КГц
    Метод сжатия : С потерями
    Размер потока : 119 Мбайт (2%)
    Язык : Russian
    Default : Да
    Forced : Да
    Аудио #2
    Идентификатор : 3
    Формат : AC-3
    Формат/Информация : Audio Coding 3
    Расширение режима : CM (complete main)
    Параметр Endianness формата : Big
    Идентификатор кодека : A_AC3
    Продолжительность : 43 м.
    Вид битрейта : Постоянный
    Битрейт : 640 Кбит/сек
    Каналы : 6 каналов
    Расположение каналов : Front: L C R, Side: L R, LFE
    Частота : 48, 0 КГц
    Метод сжатия : С потерями
    Размер потока : 198 Мбайт (3%)
    Default : Нет
    Forced : Нет


    Скриншоты для ознакомления




    Слепое пятно/Слепая зона/Blindspot (2015) HDTV [H.264/1080p] (сезон 1, серия 1 из ) NewStudio (обновляемая)
    загрузка...
    Рейтинг →
     (голосов: 1, оценка 4/5, голосовать можно 1 раз )

    Другие торренты по теме:

  • Слепое пятно / Слепая зона / Blindspot (2015) HDTV [H.264 / 720p-LQ] (сезон 1, серия 1 из ) (NewStudio) (обновляемая) скачать через торрент бесплатно
  • Слепое пятно / Слепая зона / Blindspot (2015) HDTVRip (сезон 1, серии 1 из ) NewStudio (обновляемая) скачать через торрент бесплатно
  • Слепое пятно / Слепая зона / Blindspot (2015) HDTVRip [H.264] (Сезон 1, серия 1 из ) NewStudio [MP4|720x400] скачать через торрент бесплатно
  • Слепое пятно / Слепая зона / Blindspot (2015) HDTVRip (сезон 1, серии 1 из ) AlexFilm (обновляемая) скачать через торрент бесплатно
  • Слепое пятно / Blindspot (2015) HDTVRip [H.264] (Сезон 1, серия 1 из 8()) AlexFilm [MP4|720x400] скачать через торрент бесплатно
  • Слепое пятно / Слепая зона / Blindspot (2015) WEB-DLRip (сезон 1, серии 1-2 из ) LostFilm (обновляемая) скачать через торрент бесплатно
  • Слепое пятно / Blindspot (2015) WEB-DLRip [H.264] (Сезон 1, серии 1-4 из 22) LostFilm [MP4|1280x718] скачать через торрент бесплатно
  • Слепое пятно / Blindspot 1 сезон (2015)


    • Комментарии (0):

      Информация

      Информация

        Посетители, находящиеся в группе Гости, не могут оставлять комментарии в данной новости.

        ↓ Меню




        ↓ Опрос

        Вы добавили сайт в закладки?
        Да
        Нет


        Top 10 за месяц (Фильмы)