.
Авторизация | Регистрация
Хочешь лучшие торренты? Добавь свой email!
Добавить

Торрент скачать бесплатно

» » Когда деревья были большими (1961) DVDRip [H.264] скачать через торрент бесплатно




    Когда деревья были большими (1961) DVDRip [H.264] скачать через торрент бесплатно

    Опубликовал: Админ | Дата: 15-08-2015, 04:00 | Просмотров: 182

    Производство: Россия/к/с имени М. Горького
    Жанр: Драма, Мелодрама
    Режиссер: Лев Кулиджанов

    Актеры
    Инна Гулая, Юрий Никулин, Леонид Куравлёв, Екатерина Мазурова, Василий Шукшин, Елена Королёва, Людмила Чурсина, Виктор Павлов, Аркадий Трусов, Ия Маркс, Марина (Мария) Гаврилко, Владимир Лебедев, Евгения Мельникова, Данута Столярская, Павел Шальнов, Виталий Ованесов, Георгий Шаповалов, Вера Орлова, Оля Петрова, Галина Биневская, Георгий Шмованов, Борис Юрченко, Надежда Самсонова, Владимир Смирнов

    Описание

    Потерявший во время войны жену, Кузьма Кузьмич Иорданов начал пить и совершенно опустился. Но однажды, случайно узнав о девочке, потерявшей на войне родителей, Иорданов решил стать ей отцом. О таком странном сюжете не догадывалась даже Ольга Полякова. Оставив Москву, он отправляется на встречу с будущей дочерью…

    Продолжительность: 01: 29: 46
    Качество видео: DVDRip
    Видео: AVC/H.264, 686x562@731x562 (1.30: 1), 25 fps, ~1027 kbps avg, 0.107 bit/pixel
    Аудио: AC3, 2 ch, 128 kbps, CBR
    Код:

    Общее
    Уникальный идентификатор : 249970188505718917746046695127482567966 (0xBC0E81D2ED1C5F3C8C44DF5F08DF0D1E)
    Полное имя : Когда деревья были большими.mkv
    Формат : Matroska
    Версия формата : Version 4/Version 2
    Размер файла : 744 Мбайт
    Продолжительность : 1 ч. 29 м.
    Общий поток : 1157 Кбит/сек
    Дата кодирования : UTC 2014-06-22 05:12:59
    Программа кодирования : mkvmerge v6.9.1 (\'Blue Panther\') 32bit built on Apr 18 2014 18:15:44
    Библиотека кодирования : libebml v1.3.0 + libmatroska v1.4.1
    Видео
    Идентификатор : 1
    Формат : AVC
    Формат/Информация : Advanced Video Codec
    Профиль формата :High@L4.1
    Параметр CABAC формата : Да
    Параметр ReFrames формата : 8 кадров
    Идентификатор кодека : V_MPEG4/ISO/AVC
    Продолжительность : 1 ч. 29 м.
    Битрейт : 1027 Кбит/сек
    Ширина : 686 пикселей
    Высота : 562 пикселя
    Соотношение сторон : 4:3
    Соотношение сторон в оригинале : 4:3
    Режим частоты кадров : Постоянный
    Частота кадров : 25, 000 кадров/сек
    Цветовое пространство : YUV
    Субдискретизация насыщенности : 4:2:0
    Битовая глубина : 8 бит
    Тип развёртки : Прогрессивная
    Бит/(Пиксели*Кадры) : 0.107
    Размер потока : 646 Мбайт (87%)
    Библиотека кодирования : x264 core 138 r2358 9e941d1
    Настройки программы : cabac=1/ref=8/deblock=1:-2:-1/analyse=0x3:0x133/me=umh/subme=9/psy=1/psy_rd=1.00:0.10/mixed_ref=1/me_range=24/chroma_me=1/trellis=2/8x8dct=1/cqm=0/deadzone=21, 11/fast_pskip=0/chroma_qp_offset=-3/threads=3/lookahead_threads=1/sliced_threads=0/nr=0/decimate=1/interlaced=0/bluray_compat=0/constrained_intra=0/bframes=8/b_pyramid=2/b_adapt=2/b_bias=0/direct=3/weightb=1/open_gop=0/weightp=2/keyint=250/keyint_min=25/scenecut=40/intra_refresh=0/rc_lookahead=60/rc=2pass/mbtree=1/bitrate=1027/ratetol=1.0/qcomp=0.60/qpmin=10/qpmax=51/qpstep=4/cplxblur=20.0/qblur=0.5/vbv_maxrate=50000/vbv_bufsize=50000/nal_hrd=none/ip_ratio=1.40/aq=1:1.00
    Default : Да
    Forced : Нет
    Аудио
    Идентификатор : 2
    Формат : AC-3
    Формат/Информация : Audio Coding 3
    Расширение режима : CM (complete main)
    Параметр Endianness формата : Big
    Идентификатор кодека : A_AC3
    Продолжительность : 1 ч. 29 м.
    Вид битрейта : Постоянный
    Битрейт : 128 Кбит/сек
    Каналы : 2 канала
    Расположение каналов : Front: L R
    Частота : 48, 0 КГц
    Битовая глубина : 16 бит
    Метод сжатия : С потерями
    Размер потока : 82, 3 Мбайт (11%)
    Default : Да
    Forced : Нет


    Скриншоты для ознакомления




    Когда деревья были большими (1961) DVDRip [H.264]
    загрузка...
    Рейтинг →
     (голосов: 1, оценка 5/5, голосовать можно 1 раз )

    Другие торренты по теме:

  • Когда деревья были большими (1961) DVD5 скачать через торрент бесплатно


    • Комментарии (0):

      Информация

      Информация

        Посетители, находящиеся в группе Гости, не могут оставлять комментарии в данной новости.

        ↓ Меню




        ↓ Опрос

        Вы добавили сайт в закладки?
        Да
        Нет


        Top 10 за месяц (Фильмы)