.
Авторизация | Регистрация
Хочешь лучшие торренты? Добавь свой email!
Добавить

Торрент скачать бесплатно

» » Сыщик (1979) DVD9 (серии 1-2 из 2) скачать через торрент бесплатно




    Сыщик (1979) DVD9 (серии 1-2 из 2) скачать через торрент бесплатно

    Опубликовал: Админ | Дата: 15-08-2015, 04:00 | Просмотров: 136

    Производство: Россия/к/с имени М. Горького
    Жанр: Боевик, Криминал
    Режиссер: Владимир Фокин

    Актеры
    Андрей Ташков, Борис Химичев, Александр Пашутин, Игорь Кваша, Леонид Ярмольник, Лариса Лужина, Владимир Волков, Николай Скоробогатов, Вадим Захарченко, Валерий Беляков, Юрий Сорокин, Юрий Гусев, Олег Чайка

    Описание

    После армии Женька Кулик пришел работать в милицию. Занимаясь бытовыми делами и мелкими кражами, он мечтал ловить настоящих преступников. Его даже за это сыщиком прозвали. И вот однажды Женькина мечта сбылась - лицом к лицу он столкнулся с матерым бандитом…

    Возраст: 16+ (зрителям, достигшим 16 лет.)
    Продолжительность: 01: 02: 36 + 01: 05: 55
    Качество видео: DVD9
    Язык субтитров: Русский
    Вид субтитров: Вшитые, отключаемые
    Меню: есть
    Дополнительно: Бонусы: создатели и по большей части исполнители, смотрите на DVD, о ТВИСТЕР
    Видео: MPEG-2, 720x576@768х576, ~6290 kbps
    Аудио: AC3, 6 ch, 384 kbps, CBR
    Код:
    Title: SISHIK
    Size: 6.33 Gb ( 6 634 604, 00 KBytes ) - DVD-9
    Enabled regions: 1, 2, 3, 4, 5, 6, 7, 8
    VTS_01 :
    Play Length: 01:02:36
    Video: PAL 4:3 (720x576) VBR
    Audio:
    Russian, AC3, 3/2 (L, C, R, SL, SR)+LFE ch, 384 kbps, Delay 0 mSec
    Subtitles:
    Russian
    VTS_02 :
    Play Length: 00:00:13
    Video: PAL 4:3 (720x576) VBR
    Audio:
    Not specified, AC3, 3/2 (L, C, R, SL, SR)+LFE ch, 448 kbps, Delay 0 mSec
    VTS_03 :
    Play Length: 00:00:30
    Video: PAL 16:9 (720x576) VBR, Auto Letterboxed
    Audio:
    Russian, AC3, 3/2 (L, C, R, SL, SR)+LFE ch, 448 kbps, Delay 0 mSec
    VTS_04 :
    Play Length: 00:00:27
    Video: PAL 4:3 (720x576) VBR
    Audio:
    Russian, AC3, 2/0 (L, R) ch, 192 kbps, Delay 0 mSec
    VTS_05 :
    Play Length: 01:05:55
    Video: PAL 4:3 (720x576) VBR
    Audio:
    Russian, AC3, 3/2 (L, C, R, SL, SR)+LFE ch, 384 kbps, Delay 0 mSec
    Subtitles:
    Russian
    Код:

    бщее
    Полное имя : E:VideoSISHIKVIDEO_TSVTS_05_1.VOB
    Формат : MPEG-PS
    Размер файла : 1024 Мбайт
    Продолжительность : 21 м.
    Режим общего битрейта : Переменный
    Общий поток : 6810 Кбит/сек
    Видео
    Идентификатор : 224 (0xE0)
    Формат : MPEG Video
    Версия формата : Version 2
    Профиль формата : Main@Main
    Параметр BVOP формата : Да
    Параметр матрицы формата : Выборочная
    Параметр GOP формата : M=3, N=12
    Продолжительность : 21 м.
    Вид битрейта : Переменный
    Битрейт : 6290 Кбит/сек
    Максимальный битрейт : 8500 Кбит/сек
    Ширина : 720 пикселей
    Высота : 576 пикселей
    Соотношение сторон : 4:3
    Частота кадров : 25, 000 кадров/сек
    Стандарт вещания : PAL
    Цветовое пространство : YUV
    Субдискретизация насыщенности : 4:2:0
    Битовая глубина : 8 бит
    Тип развёртки : Чересстрочная
    Порядок развёртки : Верхнее поле первое
    Метод сжатия : С потерями
    Бит/(Пиксели*Кадры) : 0.607
    Размер потока : 946 Мбайт (92%)
    Аудио
    Идентификатор : 189 (0xBD)-128 (0x80)
    Формат : AC-3
    Формат/Информация : Audio Coding 3
    Расширение режима : CM (complete main)
    Параметр Endianness формата : Big
    Режим смешивания : DVD-Video
    Продолжительность : 21 м.
    Вид битрейта : Постоянный
    Битрейт : 384 Кбит/сек
    Каналы : 6 каналов
    Расположение каналов : Front: L C R, Side: L R, LFE
    Частота : 48, 0 КГц
    Битовая глубина : 16 бит
    Метод сжатия : С потерями
    Задержка видео : -80 мс.
    Размер потока : 57, 7 Мбайт (6%)
    Текст
    Идентификатор : 189 (0xBD)-32 (0x20)
    Формат : RLE
    Формат/Информация : Run-length encoding
    Режим смешивания : DVD-Video
    Задержка видео : 480 мс.
    Меню


    Скриншоты для ознакомления




    Сыщик (1979) DVD9 (серии 1-2 из 2)
    загрузка...
    Рейтинг →
     (голосов: 1, оценка 4/5, голосовать можно 1 раз )

    Другие торренты по теме:

  • Сыщик (1979) DVDRip [H.264] (серии 1-2 из 2) скачать через торрент бесплатно
  • Дерек Ленди | Сыщик-скелет идет по следу (2015) [FB2] скачать через торрент бесплатно


    • Комментарии (0):

      Информация

      Информация

        Посетители, находящиеся в группе Гости, не могут оставлять комментарии в данной новости.

        ↓ Меню




        ↓ Опрос

        Вы добавили сайт в закладки?
        Да
        Нет


        Top 10 за месяц (Фильмы)