.
Авторизация | Регистрация
Хочешь лучшие торренты? Добавь свой email!
Добавить

Торрент скачать бесплатно

» » Упрямство / Zid (2014) DVDRip скачать через торрент бесплатно




    Упрямство / Zid (2014) DVDRip скачать через торрент бесплатно

    Опубликовал: Админ | Дата: 14-08-2015, 04:00 | Просмотров: 133

    Производство: Индия. Benaras Mediaworks
    Жанр: Триллер, Криминал
    Режиссер: Вивек Агнихотри, Анубхав Синха

    Актеры
    Шраддха Дас, Мохан Капур, Seerat Kapoor, Маннара, Каранвир Шарма, Дензиль Смит

    Описание

    Ночь. Идёт сильный ливень. Взрывоопасный вопрос, сказал кто то из толпы, к чему не понятно. Подвыпившие Майя и Ронни возвращаются на машине с вечеринки. Внезапно происходит лобовой удар со скутером, в результате чего погибает девушка по имени Нэнси. Полиция начинает своё расследование этой жуткой ночи, благодаря которой наружу всплывают весьма деликатные подробности о личных жизнях героев. Самым интересным фактом является то, что погибшая Нэнси приходится сестрой бывшей девушке Ронни…

    Продолжительность: 02: 06: 28
    Качество видео: DVDRip
    Перевод: Двуголосый закадровый
    Видео: Xvid, 640x272, ~1457 Kbps
    Аудио: AC3, 2 ch, 192 Kbps
    Код:

    General
    Format : AVI
    Format/Info : Audio Video Interleave
    File size : 1.47 GiB
    Duration : 2h 6mn
    Overall bit rate : 1 659 Kbps
    Writing application : VirtualDubMod 1.5.10.3 |www.virtualdub-fr.org|| (build 2550/release)
    Writing library : VirtualDubMod build 2550/release
    Video
    ID : 0
    Format : MPEG-4 Visual
    Format profile : Advanced Simple@L5
    Format settings, BVOP : 1
    Format settings, QPel : No
    Format settings, GMC : No warppoints
    Format settings, Matrix : Default (MPEG)
    Codec ID : XVID
    Codec ID/Hint : XviD
    Duration : 2h 6mn
    Bit rate : 1 457 Kbps
    Width : 640 pixels
    Height : 272 pixels
    Display aspect ratio : 2.35:1
    Frame rate : 24.000 fps
    Color space : YUV
    Chroma subsampling : 4:2:0
    Bit depth : 8 bits
    Scan type : Progressive
    Compression mode : Lossy
    Bits/(Pixel*Frame) : 0.349
    Stream size : 1.29 GiB (88%)
    Writing library : XviD 1.2.1 (UTC 2008-12-04)
    Audio
    ID : 1
    Format : AC-3
    Format/Info : Audio Coding 3
    Mode extension : CM (complete main)
    Format settings, Endianness : Big
    Codec ID : 2000
    Duration : 2h 6mn
    Bit rate mode : Constant
    Bit rate : 192 Kbps
    Channel(s) : 2 channels
    Channel positions : Front: L R
    Sampling rate : 48.0 KHz
    Bit depth : 16 bits
    Compression mode : Lossy
    Stream size : 174 MiB (12%)
    Alignment : Split accross interleaves
    Interleave, duration : 42 ms (1.00 video frame)
    Interleave, preload duration : 500 ms


    Скриншоты для ознакомления




    Онлайн видео Упрямство



    Упрямство/Zid (2014) DVDRip
    загрузка...
    Рейтинг →
     (голосов: 1, оценка 4/5, голосовать можно 1 раз )

    Другие торренты по теме:

  • Юлия Щербинина | Пособие по укрощению маленьких вредин. Агрессия. Упрямство. Озорство (2017) [FB2]


    • Комментарии (0):

      Информация

      Информация

        Посетители, находящиеся в группе Гости, не могут оставлять комментарии в данной новости.

        ↓ Меню




        ↓ Опрос

        Вы добавили сайт в закладки?
        Да
        Нет


        Top 10 за месяц (Фильмы)