.
Авторизация | Регистрация
Хочешь лучшие торренты? Добавь свой email!
Добавить

Торрент скачать бесплатно

» » Полицейский участок (2015) HDTVRip [H.264] (серии 1-4 из 16) (Обновляемая) скачать через торрент бесплатно




    Полицейский участок (2015) HDTVRip [H.264] (серии 1-4 из 16) (Обновляемая) скачать через торрент бесплатно

    Опубликовал: Админ | Дата: 13-08-2015, 04:00 | Просмотров: 98

    Производство: Россия, ВайТ Медиа
    Жанр: Детектив
    Режиссер: Мирослав Малич

    Актеры
    Анна Снаткина, Олег Долин, Андрей Кузнецов, Михаил Тарабукин, Виктория Стивина, Петр Логачев, Роман Агеев, Андрей Чернышов, Анна Алексахина, Игорь Черневич, Кирилл Жандаров, Илья Борисов, Геннадий Смирнов, Алексей Фокин, Вячеслав Гумеров, Иван Кавунов, Майя Айрин Вада, Игорь Опарин (II), Игорь Колосов, Александр Ершов, Яков Петров, Сергей Маркеев

    Описание

    Герои фильма – обычные люди, жители небольшого провинциального городка, которые в силу обстоятельств или по доброй воле, встали на путь преступления.
    Полина Фомина, майор полиции, работает в Москве. Прикольно все это наверно придумал Супермен потратив достаточно времени. У нее есть муж и двое детей. Муж занимает высокий пост в прокуратуре. Последнее время он ведет важное секретное расследование, в которое не посвящает даже жену. Под его прицелом находятся серьезные бандитские авторитеты и высокие чиновники. Мужа Фоминой убивают на глазах жены и детей.
    Следственные органы решают спрятать Фомину с семьей в надежное место. Но Полина не хочет сидеть без дела, ей будет легче пережить смерть любимого человека, отдавшись работе. Белая горячка, сказал кто то из толпы, к чему не понятно. Она уговаривает начальство перевести ее в маленький провинциальный городок в обыкновенный полицейский участок. Фомина с маленькими детьми и матерью приезжает в городок в Калужской области и занимает там пост начальника отделения полиции.

    Дата премьеры в России: 10 августа 2015, (Россия 1)
    Продолжительность: ~00: 45: 00 серия
    Качество видео: HDTVRip
    Видео: AVC/H.264, 1024х512, ~1761 Кбит/сек
    Аудио: AC3, 2 ch, 192 Kbps
    Семпл: Скачать
    Код:

    Общее
    Уникальный идентификатор : 219579992665955639826022191920442290858 (0xA531917C86B682B0AEF496B42BE0B2AA)
    Полное имя : D:Полицейский участок1 серия.mkv
    Формат : Matroska
    Версия формата : Version 2
    Размер файла : 644 Мбайт
    Длительность : 45 м.
    Общий поток : 1993 Кбит/сек
    Дата кодирования : UTC 2015-08-11 02:40:00
    Программа кодирования : mkvmerge v7.8.0 (\'River Man\') 32bit built on Apr 3 2015 12:11:22
    Библиотека кодирования : libebml v1.3.1 + libmatroska v1.4.2
    Видео
    Идентификатор : 1
    Формат : AVC
    Формат/Информация : Advanced Video Кодек
    Профиль формата :High@L4.1
    Параметр CABAC формата : Да
    Параметр ReFrames формата : 9 кадров
    Идентификатор кодека : V_MPEG4/ISO/AVC
    Длительность : 45 м.
    Битрейт : 1761 Кбит/сек
    Ширина : 1024 пикселя
    Высота : 512 пикселей
    Соотношение сторон : 2, 000
    Режим частоты кадров : Постоянный
    Частота кадров : 25, 000 кадров/сек
    Цветовое пространство : YUV
    Субдискретизация насыщенности : 4:2:0
    Битовая глубина : 8 бит
    Тип развёртки : Прогрессивная
    Бит/(Пиксели*Кадры) : 0.134
    Размер потока : 569 Мбайт (88%)
    Библиотека кодирования : x264 core 146 r2538 121396c
    Настройки программы : cabac=1/ref=9/deblock=1:-3:-3/analyse=0x3:0x133/me=umh/subme=9/psy=1/psy_rd=1.00:0.10/mixed_ref=1/me_range=16/chroma_me=1/trellis=2/8x8dct=1/cqm=0/deadzone=21, 11/fast_pskip=0/chroma_qp_offset=-3/threads=6/lookahead_threads=1/sliced_threads=0/nr=0/decimate=1/interlaced=0/bluray_compat=0/constrained_intra=0/bframes=9/b_pyramid=2/b_adapt=2/b_bias=0/direct=3/weightb=1/open_gop=0/weightp=2/keyint=250/keyint_min=25/scenecut=40/intra_refresh=0/rc_lookahead=50/rc=crf/mbtree=1/crf=18.0/qcomp=0.60/qpmin=0/qpmax=69/qpstep=4/ip_ratio=1.40/aq=1:1.00
    Default : Да
    Forced : Нет
    Цветовой диапазон : Limited
    Основные цвета : BT.709
    Характеристики трансфера : BT.709
    Коэффициенты матрицы : BT.709
    Аудио
    Идентификатор : 2
    Формат : AC-3
    Формат/Информация : Audio Coding 3
    Расширение режима : CM (complete main)
    Параметр Endianness формата : Big
    Идентификатор кодека : A_AC3
    Длительность : 45 м.
    Вид битрейта : Постоянный
    Битрейт : 192 Кбит/сек
    Каналы : 2 канала
    Расположение каналов : Front: L R
    Частота : 48, 0 КГц
    Метод сжатия : С потерями
    Размер потока : 62, 0 Мбайт (10%)
    Default : Да
    Forced : Нет


    Скриншоты для ознакомления




    Полицейский участок (2015) HDTVRip [H.264] (серии 1-4 из 16) (Обновляемая)
    загрузка...
    Рейтинг →
     (голосов: 1, оценка 4/5, голосовать можно 1 раз )

    Другие торренты по теме:

  • Полицейский участок (2015) SATRip (серии 1-2 из 16) (обновляемая) скачать через торрент бесплатно
  • Полицейский участок (2015) HDTV [H.264 / 1080i-LQ] (серии 1-14 из 16) (обновляемая) скачать через торрент бесплатно
  • Полицейский участок (2015) HDTVRip (серии 1-2 из 16) (обновляемая) скачать через торрент бесплатно
  • Полицейский участок (2015) HDTVRip [H.264 / 720p] (серии 1-14 из 16) (обновляемая) скачать через торрент бесплатно


    • Комментарии (0):

      Информация

      Информация

        Посетители, находящиеся в группе Гости, не могут оставлять комментарии в данной новости.

        ↓ Меню




        ↓ Опрос

        Вы добавили сайт в закладки?
        Да
        Нет


        Top 10 за месяц (Фильмы)