.
Авторизация | Регистрация
Хочешь лучшие торренты? Добавь свой email!
Добавить

Торрент скачать бесплатно

» » В воздухе / Aloft (2014) BDRip [H.264 / 720p] [EN] скачать через торрент бесплатно




    В воздухе / Aloft (2014) BDRip [H.264 / 720p] [EN] скачать через торрент бесплатно

    Опубликовал: Админ | Дата: 6-08-2015, 04:00 | Просмотров: 499

    Производство: Испания, Канада, Франция, Wanda Visión S.A., Manitoba Films AIE, Buffalo Gal Pictures, Noodles Production and Arcadia Motion Pictures.
    Жанр: драма
    Режиссер: Клаудия Льоса

    Актеры
    Киллиан Мёрфи, Дженнифер Коннелли, Уна Чаплин, Мелани Лоран, Иэн Трейси, Питер МакРобби, Зен МакГрат, Уильям Шимелл, Нэнси Дрэйк, Винта МакГрат, Энди Мюррэй, Карсон Нэттрасс

    Описание

    Иван - маленький мальчик, его мама, Нана, работает на ферме. Она заботится о нем и о его младшем брате Галли, чье психическое состояние ухудшается из-за изнурительной болезни. Однажды к ним приезжает целитель, благодаря которому Нана обнаруживает свои собственные целительные силы...

    Продолжительность: 01: 36: 41
    Качество видео: BDRip H.264/720p
    Перевод: Отсутствует
    Язык озвучки: Английский
    Видео: AVC, 1280x538 (2.40: 1), 5098 kbps, 24 fps, 0, 308 bpp
    Аудио: английский/DTS/5.1/48 kHz/960 kbps/24 bit
    Код:
    General
    Unique ID
    Complete name Aloft.720p.mkv
    Format : Matroska
    Format version : Version 4/Version 2
    File size : 4.17 GiB
    Duration : 1h 36mn
    Overall bit rate : 6 182 Kbps
    Movie name : RARBG.COM - Aloft.2014.720p.BluRay.x264.DTS-RARBG
    Encoded date : UTC 2015-08-02 21:56:48
    Writing application : mkvmerge v8.2.0 (\'World of Adventure\') 64bit
    Writing library : libebml v1.3.1 + libmatroska v1.4.2
    Video
    ID : 1
    Format : AVC
    Format/Info : Advanced Video Codec
    Format profile :High@L4.1
    Format settings, CABAC : Yes
    Format settings, ReFrames : 4 frames
    Codec ID : V_MPEG4/ISO/AVC
    Duration : 1h 36mn
    Bit rate : 5 098 Kbps
    Nominal bit rate : 5 500 Kbps
    Width : 1 280 pixels
    Height : 538 pixels
    Display aspect ratio : 2.40:1
    Original display aspect ratio : 2.40:1
    Frame rate mode : Variable
    Frame rate : 24.000 fps
    Color space : YUV
    Chroma subsampling : 4:2:0
    Bit depth : 8 bits
    Scan type : Progressive
    Bits/(Pixel*Frame) : 0.308
    Stream size : 3.44 GiB (82%)
    Title : Aloft.2014.720p.BluRay.x264.DTS-RARBG
    Writing library : x264 core 144 r96 40bb568
    Encoding settings : cabac=1/ref=4/deblock=1:-2:-2/analyse=0x3:0x113/me=umh/subme=7/psy=1/psy_rd=1.00:0.15/mixed_ref=1/me_range=16/chroma_me=1/trellis=1/8x8dct=1/cqm=0/deadzone=21, 11/fast_pskip=1/chroma_qp_offset=-3/threads=12/lookahead_threads=3/sliced_threads=0/nr=0/decimate=1/interlaced=0/bluray_compat=0/constrained_intra=0/bframes=3/b_pyramid=2/b_adapt=2/b_bias=0/direct=3/weightb=1/open_gop=0/weightp=2/keyint=250/keyint_min=25/scenecut=40/intra_refresh=0/rc_lookahead=50/rc=abr/mbtree=1/bitrate=5500/ratetol=1.0/qcomp=0.60/qpmin=0/qpmax=69/qpstep=4/vbv_maxrate=31250/vbv_bufsize=31250/nal_hrd=none/filler=0/ip_ratio=1.40/aq=1:1.00
    Language : English
    Default : Yes
    Forced : No
    Audio
    ID : 2
    Format : DTS
    Format/Info : Digital Theater Systems
    Codec ID : A_DTS
    Duration : 1h 36mn
    Bit rate mode : Constant
    Bit rate : 960 Kbps
    Channel(s) : 6 channels
    Channel positions : Front: L C R, Side: L R, LFE
    Sampling rate : 48.0 KHz
    Bit depth : 24 bits
    Compression mode : Lossy
    Stream size : 664 MiB (16%)
    Title : Aloft.2014.720p.BluRay.x264.DTS-RARBG
    Language : English
    Default : Yes
    Forced : No
    Menu
    00:00:00.000 : en:(01)00:00:00:000
    00:14:50.833 : en:(02)00:14:50:833
    00:24:11.208 : en:(03)00:24:11:208
    00:34:39.541 : en:(04)00:34:39:541
    00:46:41.208 : en:(05)00:46:41:208
    00:57:21.291 : en:(06)00:57:21:291
    01:09:19.500 : en:(07)01:09:19:500
    01:20:20.000 : en:(08)01:20:20:000


    Скриншоты для ознакомления




    загрузка...
    Рейтинг →
     (голосов: 1, оценка 5/5, голосовать можно 1 раз )

    Другие торренты по теме:

  • Это в воздухе / Its in the Air / George Takes the Air (1938) DVDRip [H.264] [EN] скачать через торрент бесплатно
  • В воздухе / Aloft (2014) BDRip [H.264 / 720p] [VO] скачать через торрент бесплатно
  • В воздухе / Aloft (2014) HDRip
  • Пол Каланити | Когда дыхание растворяется в воздухе. Иногда судьбе все равно, что ты врач (2016) [FB2]
  • BBC: Жизнь в воздухе / Life In The Air (2016) HDTVRip [H.264 / 720p-LQ] (Серии 1-3 из 3)


    • Комментарии (0):

      Информация

      Информация

        Посетители, находящиеся в группе Гости, не могут оставлять комментарии в данной новости.

        ↓ Меню




        ↓ Опрос

        Вы добавили сайт в закладки?
        Да
        Нет


        Top 10 за месяц (Фильмы)