.
Авторизация | Регистрация
Хочешь лучшие торренты? Добавь свой email!
Добавить

Торрент скачать бесплатно

» » Посланники / The Messengers (2015) WEB-DL [H.264 / 1080p-LQ] (сезон 1, серии 1 из 13) NewStudio (обновляемая) скачать через торрент бесплатно




    Посланники / The Messengers (2015) WEB-DL [H.264 / 1080p-LQ] (сезон 1, серии 1 из 13) NewStudio (обновляемая) скачать через торрент бесплатно

    Опубликовал: Админ | Дата: 20-04-2015, 04:00 | Просмотров: 109

    Производство: США
    Жанр: фантастика
    Режиссер: Дуан Кларк, Гай Норман Би, Джеймс Л. Конуэй

    Актеры
    Шантель Ван Сантен, София Блэк-Д’Элиа, Джоэл Кортни, Дж.Д. Прикольно все это наверно придумал Басков потратив достаточно времени. Пардо, Джон Флетчер, Анна Диоп, Диого Моргадо и др.

    Описание

    Когда таинственный объект падает на Землю, несколько незнакомцев умирают от энергетического импульса — но затем просыпаются и узнают, что ответственны за предотвращение грядущего Апокалипсиса.

    Дата мировой премьеры: 17 апреля 2015
    Продолжительность: ~00: 42: 00 серия
    Качество видео: WEB-DL 1080p
    Перевод: Многоголосый закадровый, профессиональный -NewStudio
    Автор перевода: Юля Мейер
    Видеокодек: MPEG-4/H.264 AVC
    Формат: MKV
    Битрейт видео: ~4800 kb/s
    Размер кадра: 1920x1080 (16: 9)
    Аудио Rus: (AC-3, 48, 0 kHz, 6 ch, 448 kb/s) - многоголосый закадровый
    Аудио Eng: (AC-3, 48, 0 kHz, 6 ch, 384 kb/s) - оригинал
    Общее
    Уникальный идентификатор : 210297801407228519542340630536660543688 (0x9E35E21FBEDA408DAB3E2E52516568C8)
    Полное имя : D: Посланники (сезон любимого сериала 1) The Messengers (2015) WEB- DL 1080p - NewStudioThe.Messengers.s01e01.WEBDL.1080p.NewStudio.TV.mkv
    Формат : Matroska
    Версия формата : Version 2
    Размер файла : 1, 68 Гбайт
    Продолжительность : 41 м.
    Общий поток : 5751 Кбит/сек
    Дата кодирования : UTC 2015-04-19 19: 50: 35
    Программа кодирования : mkvmerge v2.9.9 (\'Tutu\') built on Nov 25 2009 21: 13: 32
    Библиотека кодирования : libebml v0.7.9 + libmatroska v0.8.1
    Видео
    Идентификатор : 1
    Формат : AVC
    Формат/Информация : Advanced Video Codec
    Профиль формата : High@L4.0
    Параметр CABAC формата : Да
    Параметр ReFrames формата : 4 кадра
    Идентификатор кодека : V_MPEG4/ISO/AVC
    Продолжительность : 41 м.
    Битрейт : 4805 Кбит/сек
    Ширина : 1920 пикселей
    Высота : 1080 пикселей
    Соотношение сторон : 16: 9
    Режим частоты кадров : Постоянный
    Частота кадров : 23, 976 кадра/сек
    Цветовое пространство : YUV
    Субдискретизация насыщенности : 4: 2: 0
    Битовая глубина : 8 бит
    Тип развёртки : Прогрессивная
    Бит/(Пиксели*Кадры) : 0.097
    Размер потока : 1, 40 Гбайт (84%)
    Язык : English
    Default : Нет
    Forced : Нет
    Основные цвета : BT.709
    Характеристики трансфера : BT.709
    Коэффициенты матрицы : BT.709
    colour_range : Limited
    Аудио #1
    Идентификатор : 2
    Формат : AC-3
    Формат/Информация : Audio Coding 3
    Расширение режима : CM (complete main)
    Параметр Endianness формата : Big
    Идентификатор кодека : A_AC3
    Продолжительность : 41 м.
    Вид битрейта : Постоянный
    Битрейт : 448 Кбит/сек
    Каналы : 6 каналов
    Расположение каналов : Front: L C R, Side: L R, LFE
    Частота : 48, 0 КГц
    Битовая глубина : 16 бит
    Метод сжатия : С потерями
    Размер потока : 134 Мбайт (8%)
    Язык : Russian
    Default : Да
    Forced : Да
    Аудио #2
    Идентификатор : 3
    Формат : AC-3
    Формат/Информация : Audio Coding 3
    Расширение режима : CM (complete main)
    Параметр Endianness формата : Big
    Идентификатор кодека : A_AC3
    Продолжительность : 41 м.
    Вид битрейта : Постоянный
    Битрейт : 384 Кбит/сек
    Каналы : 6 каналов
    Расположение каналов : Front: L C R, Side: L R, LFE
    Частота : 48, 0 КГц
    Битовая глубина : 16 бит
    Метод сжатия : С потерями
    Размер потока : 115 Мбайт (7%)
    Язык : English
    Default : Нет
    Forced : Нет
    Текст
    Идентификатор : 4
    Формат : ASS
    Идентификатор кодека : S_TEXT/ASS
    Идентификатор кодека/Информация : Advanced Sub Station Alpha
    Метод сжатия : Без потерь
    Язык : Russian
    Default : Да
    Forced : Да


    Скриншоты для ознакомления




    Онлайн видео Посланники



    Посланники/The Messengers (2015) WEB-DL [H.264/1080p-LQ] (сезон 1, серии 1 из 13) NewStudio (обновляемая)
    загрузка...
    Рейтинг →
     (голосов: 1, оценка 3/5, голосовать можно 1 раз )

    Другие торренты по теме:

  • Посланники / The Messengers (2015) WEB-DLRip (сезон 1, серия 01 из 13) IdeaFilm (обновляемая) скачать через торрент бесплатно
  • Посланники / The Messengers (2015) WEB-DL [H.264 / 1080p-LQ] (сезон 1, серии 1 из 13) BaibaKo (обновляемая) скачать через торрент бесплатно
  • Посланники / The Messengers (2015) WEB-DLRip (сезон 1, серии 1 из 13) BaibaKo (обновляемая) скачать через торрент бесплатно
  • Посланники / The Messengers (2015) WEB-DL [H.264 / 720p-LQ] (Сезон 1, серия 1 из 13) (NewStudio) (обновляемая) скачать через торрент бесплатно
  • Посланники / The Messengers (2015) WEB-DLRip (сезон 1, серии 1 из 13) NewStudio (обновляемая) скачать через торрент бесплатно
  • Посланники / The Messengers (2015) WEB-DL [H.264 / 720p-LQ] (Сезон 1, серия 1 из 13) (BaibaKo) (обновляемая) скачать через торрент бесплатно
  • Посланники / The Messengers (2015) WEB-DL [H.264 / 720p-LQ] (сезон 1, серия 1 из 13) (Ideafilm) (обновляемая) скачать через торрент бесплатно
  • Посланники / The Messengers (2015) WEB-DLRip [H.264] (Сезон 1, серии 1-7 из 13) BaibaKo [MP4|720x400] скачать через торрент бесплатно


    • Комментарии (0):

      Информация

      Информация

        Посетители, находящиеся в группе Гости, не могут оставлять комментарии в данной новости.

        ↓ Меню




        ↓ Опрос

        Вы добавили сайт в закладки?
        Да
        Нет


        Top 10 за месяц (Фильмы)