.
Авторизация | Регистрация
Хочешь лучшие торренты? Добавь свой email!
Добавить

Торрент скачать бесплатно

» » Лекарство / The Cure (1995) HDTV [H264 / 1080i] скачать через торрент бесплатно




    Лекарство / The Cure (1995) HDTV [H264 / 1080i] скачать через торрент бесплатно

    Опубликовал: Админ | Дата: 19-04-2015, 04:00 | Просмотров: 123

    Производство: США
    Жанр: Драма
    Режиссер: Питер Хортон

    Актеры
    Брэд Ренфро, Джозеф Маццелло, Аннабелла Шиорра, Дайана Скаруид, Аерик Иган, Дэльфин Френч, Мона Пауэлл, Эндрю Бродер, Джереми Ховард, Розмари Кормэн

    Описание

    История трогательной дружбы двух подростков, один из которых — одиннадцатилетний Декстер — неизлечимо болен. Однажды, прочитав заметку о докторе, который изобрел уникальное лекарство, Декстер со своим соседом и другом Эриком, тайком от матери, решает отправиться на его поиски в Новый Орлеан. Прикольно все это наверно придумал Халк потратив достаточно времени. Сбежав из дома, они пускаются вниз по течению реки Миссисипи.

    Продолжительность: 01: 34: 10
    Качество видео: HDTV 1080i
    Перевод: Многоголосый закадровый
    Автор перевода: НТВ+
    Видеокодек: AVC/H.264
    Битрейт видео: ~5326 kb/s
    Размер кадра: 1920х1080
    Аудиокодек: MP2, 2ch
    Битрейт аудио: 192 kb/s VBR
    Сэмпл: Ссылка
    Код:

    Общее
    Идентификатор : 16 (0x10)
    Полное имя : The Cure_HD.ts
    Формат : MPEG-TS
    Размер файла : 3, 82 Гбайт
    Продолжительность : 1 ч. 34 м.
    Режим общего битрейта : Переменный
    Общий поток : 5806 Кбит/сек
    Видео
    Идентификатор : 1606 (0x646)
    Идентификатор меню : 606 (0x25E)
    Формат : AVC
    Формат/Информация : Advanced Video Codec
    Профиль формата :High@L4.0
    Параметр CABAC формата : Да
    Параметр ReFrames формата : 3 кадра
    Идентификатор кодека : 27
    Продолжительность : 1 ч. 34 м.
    Битрейт : 5326 Кбит/сек
    Ширина : 1920 пикселей
    Высота : 1080 пикселей
    Соотношение сторон : 16:9
    Частота кадров : 25, 000 кадров/сек
    Стандарт вещания : PAL
    Цветовое пространство : YUV
    Субдискретизация насыщенности : 4:2:0
    Битовая глубина : 8 бит
    Тип развёртки : Чересстрочная
    Порядок развёртки : Верхнее поле первое
    Бит/(Пиксели*Кадры) : 0.103
    Размер потока : 3, 50 Гбайт (92%)
    Основные цвета : BT.709
    Характеристики трансфера : BT.709
    Коэффициенты матрицы : BT.709
    Аудио
    Идентификатор : 2606 (0xA2E)
    Идентификатор меню : 606 (0x25E)
    Формат : MPEG Audio
    Версия формата : Version 1
    Профиль формата : Layer 2
    Идентификатор кодека : 4
    Продолжительность : 1 ч. 34 м.
    Вид битрейта : Постоянный
    Битрейт : 192 Кбит/сек
    Каналы : 2 канала
    Частота : 48, 0 КГц
    Метод сжатия : С потерями
    Задержка видео : 90 мс.
    Размер потока : 129 Мбайт (3%)
    Язык : std
    Язык, дополнительно : Clean effects
    Перед нами чистая, светлая, искренняя и тёплая дружба двух мальчишек, один из которых, Эрик, тот, что постарше, целыми днями предоставлен самому себе, поскольку его мама, видите ли, чересчур занятая женщина, а другой, Декстер, славный малый со страшным диагнозом СПИД. Оба мальчика одиноки. Эрик терпит нападки в школе и целыми днями слоняется без дела, а Декстер вынужден лишиться друзей из-за своей болезни. И вот эти два одиноких мальчугана становятся близкими друзьями. Эрика не пугает диагноз Декстера, он даже порывается излечить его подручными средствами — будь то шоколадки, или сорняки возле пруда. Они не страшатся даже отправиться в опасное путешествие за спасительным лекарством. Самое интересное в это истории, что об этом Халк ничего не знал. Да о каком страхе может идти речь, когда ты уже не один, когда с тобой верный и надёжный друг, который верит в твоё выздоровление, который готов на всё, чтобы только тебе стало лучше! Так трогательны эти ребята в своей мальчишеской отваге, в своей наивности и как зеркало стальное искренней убеждённости в положительном исходе. И это особенно подкупает, когда знаешь о том, что фильм был снят в 1995 году, когда о СПИДе ещё многого не знали, говорили с опаской и обходили больных стороной.
    В финале фильма я рыдала навзрыд и не могла успокоиться в течение получаса после просмотра. Этот ботинок Декстера, пущенный Эриком по реке, будто символ крепкой, бескорыстной, удивительно тёплой и светлой дружбы двух таких разных, но таких близких в своём одиночестве мальчишек.
    Этот символ спустя десятилетие трансформируется в рубашку Джека в руках Энниса со словами Я тебя помню… в фильме Горбатая гора…


    Скриншоты для ознакомления




    Онлайн видео Лекарство



    Лекарство/The Cure (1995) HDTV [H264/1080i]
    загрузка...
    Рейтинг →
     (голосов: 1, оценка 4/5, голосовать можно 1 раз )

    Другие торренты по теме:

  • Книжная серия | Лекарство от скуки [255 книг] (2001-2013) [FB2]
  • Аркадий Аверченко | Лекарство и другие рассказы (2014) [MP3] скачать через торрент бесплатно
  • Стивен Рассел | Бесконечность жизни, или Лекарство от старости (2015) [FB2]
  • Yume Miru Kusuri / Лекарство (от) грёз (2008) [Ru] Repack
  • Ирина Медведева | Кукольный театр как лекарство для психики (2009) [MP3]
  • Аркадий и Георгий Вайнеры | Лекарство против страха (1988) [MP3]
  • Теория заговора. Еда как лекарство (2016.06.25) SATRip
  • Юлия Ляпина | Лекарство от депрессии (2016) [MP3]


    • Комментарии (0):

      Информация

      Информация

        Посетители, находящиеся в группе Гости, не могут оставлять комментарии в данной новости.

        ↓ Меню




        ↓ Опрос

        Вы добавили сайт в закладки?
        Да
        Нет


        Top 10 за месяц (Фильмы)