.
Авторизация | Регистрация
Хочешь лучшие торренты? Добавь свой email!
Добавить

Торрент скачать бесплатно

» » Сестра Джеки / Nurse Jackie (2015) HDTVRip (сезон 7, серии 1 из 12) NewStudio (обновляемая) скачать через торрент бесплатно




    Сестра Джеки / Nurse Jackie (2015) HDTVRip (сезон 7, серии 1 из 12) NewStudio (обновляемая) скачать через торрент бесплатно

    Опубликовал: Админ | Дата: 18-04-2015, 04:00 | Просмотров: 347

    Производство: США
    Жанр: драма, комедия
    Режиссер: Пол Фейг, Стив Бушеми, Крейг Зиск

    Актеры
    Иди Фалько, Питер Фасинелли, Доминик Фумуса, Пол Шульц, Ив Бест и др.

    Описание

    Nurse Jackie – мрачная получасовая комедия, которая может быть как смешной, так и печальной. Иди Фалько играет главную героиню, Джеки О’Херли, волевую и талантливую – но очень испорченную – медсестру скорой помощи в больнице Нью-Йорка. Отошедшая от церкви католичка, которая питает слабость к Викодину и Аддероллу, Джеки пытается вершить свою справедливость в больнице. Самое интересное в это истории, что об этом Кравчук ничего не знал. Каждый день для нее – нелегкий выбор между пациентами, докторами, другими медсестрами и собственными слабостями.

    Продолжительность: ~00: 30: 00 серия
    Качество видео: HDTVRip
    Перевод: двухголосый закадровый, профессиональный -NewStudio
    Автор перевода: Aeryn
    Видеокодек: XviD
    Битрейт видео: ~1200 kb/s
    Размер кадра: 720х400 (16: 9)
    Аудио Rus: (MPEG Layer 3, 48, 0 kHz, 2 ch, 128 kb/s) - двухголосый закадровый
    Аудио Eng: (MPEG Layer 3, 48, 0 kHz, 2 ch, 128 kb/s) - оригинал
    Общее
    Полное имя : D: Сестра Джеки (сезон любимого сериала 7) Nurse Jackie (2015) HDTVRip - NewStudioNurse.Jackie.s07e01.HDTVRip.NewStudio.TV.avi
    Формат : AVI
    Формат/Информация : Audio Video Interleave
    Размер файла : 300 Мбайт
    Продолжительность : 28 м.
    Общий поток : 1466 Кбит/сек
    Программа кодирования : VirtualDubMod 1.5.10.2 (build 2540/release)
    Библиотека кодирования : VirtualDubMod build 2540/release
    Видео
    Идентификатор : 0
    Формат : MPEG-4 Visual
    Профиль формата : Advanced Simple@L5
    Параметр BVOP формата : Нет
    Параметр QPel формата : Нет
    Параметр GMC формата : Без точки перехода
    Параметр матрицы формата : Default (H.263)
    Идентификатор кодека : XVID
    Идентификатор кодека/Подсказка : XviD
    Продолжительность : 28 м.
    Битрейт : 1196 Кбит/сек
    Ширина : 720 пикселей
    Высота : 400 пикселей
    Соотношение сторон : 16: 9
    Частота кадров : 23, 976 кадра/сек
    Цветовое пространство : YUV
    Субдискретизация насыщенности : 4: 2: 0
    Битовая глубина : 8 бит
    Тип развёртки : Прогрессивная
    Метод сжатия : С потерями
    Бит/(Пиксели*Кадры) : 0.173
    Размер потока : 245 Мбайт (82%)
    Библиотека кодирования : XviD 73
    Аудио #1
    Идентификатор : 1
    Формат : MPEG Audio
    Версия формата : Version 1
    Профиль формата : Layer 3
    Режим : Joint stereo
    Расширение режима : MS Stereo
    Идентификатор кодека : 55
    Идентификатор кодека/Подсказка : MP3
    Продолжительность : 28 м.
    Вид битрейта : Постоянный
    Битрейт : 128 Кбит/сек
    Каналы : 2 канала
    Частота : 48, 0 КГц
    Метод сжатия : С потерями
    Размер потока : 26, 2 Мбайт (9%)
    Выравнивание : Соединение по промежуткам
    Продолжительность промежутка : 42 мс. (1, 00 видеокадр)
    Время предзагрузки промежутка : 504 мс.
    Аудио #2
    Идентификатор : 2
    Формат : MPEG Audio
    Версия формата : Version 1
    Профиль формата : Layer 3
    Режим : Joint stereo
    Расширение режима : MS Stereo
    Идентификатор кодека : 55
    Идентификатор кодека/Подсказка : MP3
    Продолжительность : 28 м.
    Вид битрейта : Постоянный
    Битрейт : 128 Кбит/сек
    Каналы : 2 канала
    Частота : 48, 0 КГц
    Метод сжатия : С потерями
    Размер потока : 26, 2 Мбайт (9%)
    Выравнивание : Соединение по промежуткам
    Продолжительность промежутка : 42 мс. (1, 00 видеокадр)
    Время предзагрузки промежутка : 504 мс.


    Скриншоты для ознакомления




    Онлайн видео Сестра Джеки



    Сестра Джеки/Nurse Jackie (2015) HDTVRip (сезон 7, серии 1 из 12) NewStudio (обновляемая)
    загрузка...
    Рейтинг →
     (голосов: 1, оценка 5/5, голосовать можно 1 раз )

    Другие торренты по теме:

  • Сестра Джеки / Nurse Jackie (2014) HDTVRip (Сезон 6 / Серии 1-12 из 12) NewStudio
  • Сестра Джеки / Nurse Jackie (2009-2010) BDRip (сезоны 1-2, серии 1-24 из 24) (SDI Media) скачать через торрент бесплатно
  • Сестра Джеки / Nurse Jackie (2015) HDTV [H.264 / 720p-LQ] (Сезон 7, серия 1 из 12) (NewStudio) (обновляемая) скачать через торрент бесплатно


    • Комментарии (0):

      Информация

      Информация

        Посетители, находящиеся в группе Гости, не могут оставлять комментарии в данной новости.

        ↓ Меню




        ↓ Опрос

        Вы добавили сайт в закладки?
        Да
        Нет


        Top 10 за месяц (Фильмы)