.
Авторизация | Регистрация
Хочешь лучшие торренты? Добавь свой email!
Добавить

Торрент скачать бесплатно

» » Готэм / Gotham (2014) WEB-DLRip (сезон 1, серии 1-19 из 22) LostFilm (обновляемая) скачать через торрент бесплатно




    Готэм / Gotham (2014) WEB-DLRip (сезон 1, серии 1-19 из 22) LostFilm (обновляемая) скачать через торрент бесплатно

    Опубликовал: Админ | Дата: 16-04-2015, 04:00 | Просмотров: 152

    Производство: США
    Жанр: триллер, драма, криминал
    Режиссер: Дэнни Кэннон

    Актеры
    Бен МакКензи, Донал Лог, Сара Пэкстон, Джада Пинкетт Смит, Шон Пертуи, Эрин Ричардс, Робин Тейлор, Дэвид Мазоуз, Забрина Гевара, Самрен Бикондова и др.

    Описание

    Сериал Готэм рассказывает о событиях, происходивших в детские годы Брюса Уэйна, впоследствии ставшего Бэтменом. Родителей мальчика убивают у него на глазах. За расследование убийства четы Уэйнов берётся молодой детектив Джим Гордон. Ему приходится иметь дело со злодеями всех мастей, и одним из самых коварных по праву считается Освальд Кобблпот, более известный как Пингвин.
    Телевизионный проект DC Comics и автора детективного сериала Менталист Бруно Хеллера

    Дата мировой премьеры: 22 сентября 2014
    Продолжительность: ~00: 49: 00 серия
    Качество видео: WEB-DLRip
    Перевод: Многоголосый закадровый, профессиональный -LostFilm
    Видеокодек: XviD
    Формат: AVI
    Битрейт видео: ~1660 kb/s
    Размер кадра: 720х400 (16: 9)
    Аудио Rus: (MPEG Layer 3, 48, 0 kHz, 2 ch, 192 kb/s) - многоголосый закадровый
    Общее
    Полное имя : D: Готэм (сезон любимого сериала 1) Gotham (2014) WEB-DLRip - LostFilmGotham.S01E01.rus.LostFilm.TV.avi
    Формат : AVI
    Формат/Информация : Audio Video Interleave
    Размер файла : 658 Мбайт
    Продолжительность : 49 м.
    Режим общего битрейта : Переменный
    Общий поток : 1858 Кбит/сек
    Программа кодирования : Nandub v1.0rc2
    Библиотека кодирования : Nandub build 1853/release
    Видео
    Идентификатор : 0
    Формат : MPEG-4 Visual
    Профиль формата : Advanced Simple@L5
    Параметр BVOP формата : Нет
    Параметр QPel формата : Нет
    Параметр GMC формата : Без точки перехода
    Параметр матрицы формата : Default (H.263)
    Идентификатор кодека : XVID
    Идентификатор кодека/Подсказка : XviD
    Продолжительность : 49 м.
    Битрейт : 1659 Кбит/сек
    Ширина : 720 пикселей
    Высота : 400 пикселей
    Соотношение сторон : 16: 9
    Частота кадров : 23, 976 кадра/сек
    Цветовое пространство : YUV
    Субдискретизация насыщенности : 4: 2: 0
    Битовая глубина : 8 бит
    Тип развёртки : Прогрессивная
    Метод сжатия : С потерями
    Бит/(Пиксели*Кадры) : 0.240
    Размер потока : 587 Мбайт (89%)
    Библиотека кодирования : XviD 1.2.1 (UTC 2008-12-04)
    Аудио
    Идентификатор : 1
    Формат : MPEG Audio
    Версия формата : Version 1
    Профиль формата : Layer 3
    Режим : Joint stereo
    Расширение режима : MS Stereo
    Идентификатор кодека : 55
    Идентификатор кодека/Подсказка : MP3
    Продолжительность : 49 м.
    Вид битрейта : Переменный
    Битрейт : 192 Кбит/сек
    Каналы : 2 канала
    Частота : 48, 0 КГц
    Метод сжатия : С потерями
    Размер потока : 66, 2 Мбайт (10%)
    Выравнивание : Соединение по промежуткам
    Продолжительность промежутка : 24 мс. Прикольно все это наверно придумал Европарламент потратив достаточно времени. (0, 58 видеокадр)
    Время предзагрузки промежутка : 496 мс.
    Библиотека кодирования : LAME3.97b
    Настройки программы : -m j -V 4 -q 3 -lowpass 18.6 --abr 192


    Скриншоты для ознакомления




    Онлайн видео Готэм



    Готэм/Gotham (2014) WEB-DLRip (сезон 1, серии 1-19 из 22) LostFilm (обновляемая)
    загрузка...
    Рейтинг →
     (голосов: 1, оценка 5/5, голосовать можно 1 раз )

    Другие торренты по теме:

  • Готэм / Gotham (2014) WEB-DLRip (сезон 1, серии 1 из 16) LostFilm (обновляемая)
  • Готэм / Gotham (2014) WEB-DL [H.264 / 1080p-LQ] (Сезон 1, серия 1 из 16) (NewStudio) (обновляемая)
  • Готэм / Gotham (2014) WEB-DLRip (сезон 1, серии 1 из 16) BaibaKo (обновляемая)
  • Готэм / Gotham (2014) WEB-DL [H.264 / 720p-LQ] (Сезон 1, Серии 1 из 16) (NewStudio) (Обновляемая)
  • Готэм / Gotham (2014) WEBDLRip (Сезон 1, серия 01 из 16) (NewStudio) (обновляемая)
  • Готэм / Gotham (2014) WEB-DL [H.264 / 720p-LQ] (Сезон 1, серия 01 из 16) (BaibaKo) (обновляемая)
  • Готэм / Gotham (2014) WEBRip [H.264 / 720p-LQ] [Трейлер]
  • Готэм (Gotham) / (Сезон 1, серия 1 из 16) LostFilm (2014) [MP4|1280x718] <WEB-DL H.264> скачать через торрент бесплатно


    • Комментарии (0):

      Информация

      Информация

        Посетители, находящиеся в группе Гости, не могут оставлять комментарии в данной новости.

        ↓ Меню




        ↓ Опрос

        Вы добавили сайт в закладки?
        Да
        Нет


        Top 10 за месяц (Фильмы)