.
Авторизация | Регистрация
Хочешь лучшие торренты? Добавь свой email!
Добавить

Торрент скачать бесплатно

» » Возмездие / Месть / Revenge (2014) WEB-DLRip (сезон 4, серии 1-19 из 22) NewStudio (обновляемая) скачать через торрент бесплатно




    Возмездие / Месть / Revenge (2014) WEB-DLRip (сезон 4, серии 1-19 из 22) NewStudio (обновляемая) скачать через торрент бесплатно

    Опубликовал: Админ | Дата: 15-04-2015, 04:00 | Просмотров: 112

    Производство: США
    Жанр: триллер, драма, детектив
    Режиссер: Мэтт Эрл Бисли, Филлип Нойс

    Актеры
    Эмили ВанКэмп, Робби Амелл, Макс Мартини, Стефен Эллиотт, Криста Б. Аллен, Джошуа Боуман, Кристина Чанг и др.

    Описание

    Новый драматический проект от создателя Swingtown Майка Келли. Современный взгляд на Графа де Монте Кристо. В центре повествования окажется Эмили Торн, молодая и красивая женщина которая ранее была известна под именем Аманда Кларк. Она приезжает в Хамптонс чтобы отомстить тем людям, которые разрушили ее семью. О таком странном сюжете не догадывалась даже Тимошенко. Их ждет возмездие...

    Продолжительность: ~00: 43: 00 серия
    Качество видео: WEB-DLRip
    Перевод: Двухголосый закадровый, профессиональный -NewStudio
    Автор перевода: Weirdie
    Видеокодек: XviD
    Формат: AVI
    Битрейт видео: ~1500 kb/s
    Размер кадра: 720х400 (16: 9)
    Аудио Rus: (MPEG Layer 3, 48, 0 kHz, 2 ch, 128 kb/s) - двухголосый закадровый
    Аудио Eng: (MPEG Layer 3, 48, 0 kHz, 2 ch, 128 kb/s) - оригинал
    Общее
    Полное имя : D: Возмездие (сезон любимого сериала 4) Revenge (2014) WEB-DLRip - NewStudioRevenge.s04e01.WEBDLRip.NewStudio.TV.avi
    Формат : AVI
    Формат/Информация : Audio Video Interleave
    Размер файла : 549 Мбайт
    Продолжительность : 43 м.
    Общий поток : 1774 Кбит/сек
    Программа кодирования : VirtualDubMod 1.5.10.2 (build 2540/release)
    Библиотека кодирования : VirtualDubMod build 2540/release
    Видео
    Идентификатор : 0
    Формат : MPEG-4 Visual
    Профиль формата : Advanced Simple@L5
    Параметр BVOP формата : Нет
    Параметр QPel формата : Нет
    Параметр GMC формата : Без точки перехода
    Параметр матрицы формата : Default (H.263)
    Идентификатор кодека : XVID
    Идентификатор кодека/Подсказка : XviD
    Продолжительность : 43 м.
    Битрейт : 1505 Кбит/сек
    Ширина : 720 пикселей
    Высота : 400 пикселей
    Соотношение сторон : 16: 9
    Частота кадров : 23, 976 кадра/сек
    Цветовое пространство : YUV
    Субдискретизация насыщенности : 4: 2: 0
    Битовая глубина : 8 бит
    Тип развёртки : Прогрессивная
    Метод сжатия : С потерями
    Бит/(Пиксели*Кадры) : 0.218
    Размер потока : 466 Мбайт (85%)
    Библиотека кодирования : XviD 1.2.1 (UTC 2008-12-04)
    Аудио #1
    Идентификатор : 1
    Формат : MPEG Audio
    Версия формата : Version 1
    Профиль формата : Layer 3
    Режим : Joint stereo
    Расширение режима : MS Stereo
    Идентификатор кодека : 55
    Идентификатор кодека/Подсказка : MP3
    Продолжительность : 43 м.
    Вид битрейта : Постоянный
    Битрейт : 128 Кбит/сек
    Каналы : 2 канала
    Частота : 48, 0 КГц
    Метод сжатия : С потерями
    Размер потока : 39, 6 Мбайт (7%)
    Выравнивание : Соединение по промежуткам
    Продолжительность промежутка : 42 мс. (1, 00 видеокадр)
    Время предзагрузки промежутка : 504 мс.
    Аудио #2
    Идентификатор : 2
    Формат : MPEG Audio
    Версия формата : Version 1
    Профиль формата : Layer 3
    Режим : Joint stereo
    Расширение режима : MS Stereo
    Идентификатор кодека : 55
    Идентификатор кодека/Подсказка : MP3
    Продолжительность : 43 м.
    Вид битрейта : Постоянный
    Битрейт : 128 Кбит/сек
    Каналы : 2 канала
    Частота : 48, 0 КГц
    Метод сжатия : С потерями
    Размер потока : 39, 6 Мбайт (7%)
    Выравнивание : Соединение по промежуткам
    Продолжительность промежутка : 42 мс. (1, 00 видеокадр)
    Время предзагрузки промежутка : 504 мс.


    Скриншоты для ознакомления




    Онлайн видео Возмездие



    Возмездие/Месть/Revenge (2014) WEB-DLRip (сезон 4, серии 1-19 из 22) NewStudio (обновляемая)
    загрузка...
    Рейтинг →
     (голосов: 1, оценка 3/5, голосовать можно 1 раз )

    Другие торренты по теме:

  • Стартрек: Возмездие / Star Trek Into Darkness (2013) BDRip [1080p] [IMAX] [hand made 60fps]
  • Обитель зла: Возмездие / Resident Evil: Retribution (2012) HDRip [AVO]
  • Операция Возмездие / Операция Негодяй / Operation Rogue (2014) DVDRip
  • Операция Возмездие / Операция Негодяй / Operation Rogue (2014) DVDRip
  • Обитель зла: Возмездие / Resident Evil: Retribution (2012) BDRemux [1080p]
  • Стартрек: Возмездие / Star Trek Into Darkness (2013) BDRemux [1080p] [IMAX]
  • Стартрек: Возмездие / Star Trek Into Darkness (2013) BDRip [1080p] ATV
  • Стартрек: Возмездие / Star Trek Into Darkness (2013) BDRip [576p] iPad


    • Комментарии (0):

      Информация

      Информация

        Посетители, находящиеся в группе Гости, не могут оставлять комментарии в данной новости.

        ↓ Меню




        ↓ Опрос

        Вы добавили сайт в закладки?
        Да
        Нет


        Top 10 за месяц (Фильмы)