.
Авторизация | Регистрация
Хочешь лучшие торренты? Добавь свой email!
Добавить

Торрент скачать бесплатно

» » Элементарно / Elementary (2014) WEB-DL [H.264 / 720p-LQ] (сезон 3, серии 1-19 из 24) LostFilm (oбновляемая) скачать через торрент бесплатно




    Элементарно / Elementary (2014) WEB-DL [H.264 / 720p-LQ] (сезон 3, серии 1-19 из 24) LostFilm (oбновляемая) скачать через торрент бесплатно

    Опубликовал: Админ | Дата: 13-04-2015, 04:00 | Просмотров: 1045

    Производство: США
    Жанр: драма, криминал, детектив
    Режиссер: Джон Полсон, Эндрю Бернштейн, Сет Манн

    Актеры
    Джонни Ли Миллер, Люси Лью, Эйдан Куинн, Джон Майкл Хилл, Натали Дормер, Ато Эссонда, Линда Эмонд, Майкл Ден Деккер, Винни Джонс, Эрик Дженсен и др.

    Описание

    Новая интерпретация классического произведения Артура Конана Дойла о Шерлоке Холмсе. Но сюжет сериала будет развиваться не по классическому сценарию, главный герой поменяет не только прописку, он переедет из Лондона в Нью-Йорк, но и эпоху, сюжет будет разворачиваться в наше время. Также зрителей ждет еще один сюрприз, теперь у Шерлока будет не помощник в лице Доктора Ватсона а помощница, роль которой досталось обворожительной Люси Лью. Элементарно - современная криминальная драма о дуэте детектива Шерлока Холмса и доктора Джоан Ватсон, который решает самые запутанные дела в полицейском департаменте Нью-Йорка.

    Продолжительность: ~00: 43: 00 серия
    Качество видео: WEB-DL 720p
    Перевод: Многоголосый закадровый, профессиональный -LostFilm
    Видеокодек: MPEG-4/H.264 AVC
    Битрейт видео: ~4000 kb/s
    Размер кадра: 1280x720 (16: 9)
    Аудио Rus: (AC-3, 48, 0 kHz, 2 ch, 384 kb/s) - многоголосый закадровый
    Аудио Eng: (AC-3, 48, 0 kHz, 2 ch, 384 kb/s) - оригинал
    Общее
    Уникальный идентификатор : 234446656728544628403742842561350365708 (0xB060C89DA58EF3FAB5CAD0103440720C)
    Полное имя : D: Элементарно (сезон любимого сериала 3) Elementary (2014) WEB-DL 720p - LostFilmElementary.S03E01.WEB-DL720p.rus.eng.LostFilm.TV.mkv
    Формат : Matroska
    Версия формата : Version 4/Version 2
    Размер файла : 1, 47 Гбайт
    Продолжительность : 43 м.
    Общий поток : 4830 Кбит/сек
    Дата кодирования : UTC 2014-11-02 17: 34: 58
    Программа кодирования : mkvmerge v7.2.0 (\'On Every Street\') 64bit built on Sep 13 2014 15: 52: 10
    Библиотека кодирования : libebml v1.3.0 + libmatroska v1.4.1
    DURATION : 00: 43: 30.208000000
    NUMBER_OF_FRAMES : 81569
    NUMBER_OF_BYTES : 125289984
    _STATISTICS_WRITING_APP : mkvmerge v7.2.0 (\'On Every Street\') 64bit built on Sep 13 2014 15: 52: 10
    _STATISTICS_WRITING_DATE_UTC : 2014-11-02 17: 34: 58
    _STATISTICS_TAGS : BPS DURATION NUMBER_OF_FRAMES NUMBER_OF_BYTES
    Видео
    Идентификатор : 1
    Формат : AVC
    Формат/Информация : Advanced Video Codec
    Профиль формата : High@L3.1
    Параметр CABAC формата : Нет
    Параметр ReFrames формата : 2 кадра
    Идентификатор кодека : V_MPEG4/ISO/AVC
    Продолжительность : 43 м.
    Битрейт : 4000 Кбит/сек
    Ширина : 1280 пикселей
    Высота : 720 пикселей
    Соотношение сторон : 16: 9
    Режим частоты кадров : Постоянный
    Частота кадров : 23, 976 кадра/сек
    Цветовое пространство : YUV
    Субдискретизация насыщенности : 4: 2: 0
    Битовая глубина : 8 бит
    Тип развёртки : Прогрессивная
    Бит/(Пиксели*Кадры) : 0.181
    Размер потока : 1, 21 Гбайт (82%)
    Библиотека кодирования : x264 core 112 r1834 a51816a
    Настройки программы : cabac=0/ref=3/deblock=1: 0: 0/analyse=0x1: 0x111/me=hex/subme=7/psy=1/psy_rd=1.00: 0.00/mixed_ref=1/me_range=16/chroma_me=1/trellis=1/8x8dct=0/cqm=0/deadzone=21, 11/fast_pskip=1/chroma_qp_offset=-2/threads=6/sliced_threads=0/nr=0/decimate=1/interlaced=0/constrained_intra=0/bframes=3/b_pyramid=2/b_adapt=1/b_bias=0/direct=1/weightb=1/open_gop=0/weightp=2/keyint=250/keyint_min=25/scenecut=40/intra_refresh=0/rc_lookahead=40/rc=abr/mbtree=1/bitrate=4000/ratetol=1.0/qcomp=0.60/qpmin=0/qpmax=51/qpstep=4/vbv_maxrate=5000/vbv_bufsize=2000/ip_ratio=1.40/aq=1: 1.00/nal_hrd=none
    Язык : English
    Default : Да
    Forced : Нет
    Основные цвета : BT.709
    Характеристики трансфера : BT.709
    Коэффициенты матрицы : BT.709
    Аудио #1
    Идентификатор : 2
    Формат : AC-3
    Формат/Информация : Audio Coding 3
    Расширение режима : CM (complete main)
    Параметр Endianness формата : Big
    Идентификатор кодека : A_AC3
    Продолжительность : 43 м.
    Вид битрейта : Постоянный
    Битрейт : 384 Кбит/сек
    Каналы : 2 канала
    Расположение каналов : Front: L R
    Частота : 48, 0 КГц
    Битовая глубина : 16 бит
    Метод сжатия : С потерями
    Размер потока : 119 Мбайт (8%)
    Заголовок : LostFilm
    Язык : Russian
    Default : Да
    Forced : Нет
    Аудио #2
    Идентификатор : 3
    Формат : AC-3
    Формат/Информация : Audio Coding 3
    Расширение режима : CM (complete main)
    Параметр Endianness формата : Big
    Идентификатор кодека : A_AC3
    Продолжительность : 43 м.
    Вид битрейта : Постоянный
    Битрейт : 384 Кбит/сек
    Каналы : 2 канала
    Расположение каналов : Front: L R
    Частота : 48, 0 КГц
    Битовая глубина : 16 бит
    Метод сжатия : С потерями
    Размер потока : 119 Мбайт (8%)
    Язык : English
    Default : Нет
    Forced : Нет


    Скриншоты для ознакомления




    Онлайн видео Элементарно



    Элементарно/Elementary (2014) WEB-DL [H.264/720p-LQ] (сезон 3, серии 1-19 из 24) LostFilm (oбновляемая)
    загрузка...
    Рейтинг →
     (голосов: 1, оценка 3/5, голосовать можно 1 раз )

    Другие торренты по теме:

  • Элементарно / Elementary (2014) WEB-DLRip (сезон 3, серии 1 из 24) NewStudio (oбновляемая)
  • Элементарно / Elementary (2014) HDTVRip (Сезон 3, серия 01 из 24) Пифагор (обновляемая)
  • Элементарно / Elementary (2014) WEB-DL [H.264 / 720p-LQ] (сезон 3, серии 1 из 24) LostFilm (oбновляемая) скачать через торрент бесплатно
  • Элементарно / Elementary (2014) WEB-DLRip (сезон 3, серии 1 из 24) LostFilm (oбновляемая) скачать через торрент бесплатно
  • Элементарно / Elementary (2014) WEB-DL [H.264 / 720p-LQ] (сезон 3, серии 1-4 из 24) NewStudio (oбновляемая)
  • Нил Гейман и др. | Элементарно, Ватсон! [сборник] (2014) [FB2] скачать через торрент бесплатно
  • Элементарно / Elementary (2014) WEB-DLRip (сезон 3, серии 1-19 из 24) NewStudio (oбновляемая) скачать через торрент бесплатно
  • Элементарно / Elementary (2014) WEB-DL [H.264 / 720p-LQ] (сезон 3, серии 1-19 из 24) NewStudio (oбновляемая) скачать через торрент бесплатно


    • Комментарии (0):

      Информация

      Информация

        Посетители, находящиеся в группе Гости, не могут оставлять комментарии в данной новости.

        ↓ Меню




        ↓ Опрос

        Вы добавили сайт в закладки?
        Да
        Нет


        Top 10 за месяц (Фильмы)