.
Авторизация | Регистрация
Хочешь лучшие торренты? Добавь свой email!
Добавить

Торрент скачать бесплатно

» » Чужестранка / Outlander (2014) WEB-DLRip (сезон 1, серии 1-9 из 16) SET (oбновляемая) скачать через торрент бесплатно




    Чужестранка / Outlander (2014) WEB-DLRip (сезон 1, серии 1-9 из 16) SET (oбновляемая) скачать через торрент бесплатно

    Опубликовал: Админ | Дата: 12-04-2015, 04:01 | Просмотров: 124

    Производство: США
    Жанр: фантастика, драма, мелодрама
    Режиссер: Анна Ферстер, Брайан Келли, Ричард Кларк, Джон Дал

    Актеры
    Каитриона Бэлфи, Сэм Юэн, Дункан Лакруа, Гари Льюис, Грэм Мак Тавиш, Тобиаш Мензес, Стивен Уолтерс, Аннет Бэдленд, Родерик Джилкисон и др.

    Описание

    Клэр, работавшая медсестой во время Второй мировой войны, случайно перемещается во времени и попадает в 1743 год. В этом мире, полном приключений, она знакомится с шотландским рыцарем Джейми. У героев завязывается страстный роман, несмотря на то, что сердце Клэр разрывается между двумя мужчинами — Джейми и ее мужем Фрэнком, который остался в другом времени.

    Дата мировой премьеры: 9 августа 2014
    Продолжительность: ~00: 55: 00 серия
    Качество видео: WEB-DLRip
    Перевод: Многоголосый закадровый, профессиональный -Sony Entertainment Television
    Релиз: AlexFilm
    Работа со звуком: TVZ
    Видеокодек: XviD
    Формат: AVI
    Битрейт видео: ~1500 kb/s
    Размер кадра: 720х400 (16: 9)
    Аудио Rus: (MPEG Layer 3, 48, 0 kHz, 2 ch, 192 kb/s) - многоголосый закадровый
    Аудио Eng: (MPEG Layer 3, 48, 0 kHz, 2 ch, 192 kb/s) - оригинал
    Общее
    Полное имя : D: Чужестранка (сезон любимого сериала 1) Outlander (2014) WEB-DLRip - AlexFilmOutlander.s01e01.WEBDLRip.Rus.Eng.AlexFilm.avi
    Формат : AVI
    Формат/Информация : Audio Video Interleave
    Размер файла : 824 Мбайт
    Продолжительность : 1 ч. 0 м.
    Общий поток : 1893 Кбит/сек
    Программа кодирования : VirtualDubModRus 1.5.10.2 (build 2542/release)
    Библиотека кодирования : VirtualDubMod build 2542/release
    Видео
    Идентификатор : 0
    Формат : MPEG-4 Visual
    Профиль формата : Advanced Simple@L5
    Параметр BVOP формата : 2
    Параметр QPel формата : Нет
    Параметр GMC формата : Без точки перехода
    Параметр матрицы формата : Default (H.263)
    Идентификатор кодека : XVID
    Идентификатор кодека/Подсказка : XviD
    Продолжительность : 1 ч. Самое интересное в это истории, что об этом Бетмен ничего не знал. 0 м.
    Битрейт : 1495 Кбит/сек
    Ширина : 720 пикселей
    Высота : 400 пикселей
    Соотношение сторон : 16: 9
    Частота кадров : 25, 000 кадров/сек
    Цветовое пространство : YUV
    Субдискретизация насыщенности : 4: 2: 0
    Битовая глубина : 8 бит
    Тип развёртки : Прогрессивная
    Метод сжатия : С потерями
    Бит/(Пиксели*Кадры) : 0.208
    Размер потока : 651 Мбайт (79%)
    Библиотека кодирования : XviD 64
    Аудио #1
    Идентификатор : 1
    Формат : MPEG Audio
    Версия формата : Version 1
    Профиль формата : Layer 3
    Режим : Joint stereo
    Идентификатор кодека : 55
    Идентификатор кодека/Подсказка : MP3
    Продолжительность : 1 ч. 0 м.
    Вид битрейта : Постоянный
    Битрейт : 192 Кбит/сек
    Каналы : 2 канала
    Частота : 48, 0 КГц
    Метод сжатия : С потерями
    Размер потока : 83, 6 Мбайт (10%)
    Выравнивание : Разделение по промежуткам
    Продолжительность промежутка : 40 мс. (1, 00 видеокадр)
    Время предзагрузки промежутка : 500 мс.
    Аудио #2
    Идентификатор : 2
    Формат : MPEG Audio
    Версия формата : Version 1
    Профиль формата : Layer 3
    Режим : Joint stereo
    Идентификатор кодека : 55
    Идентификатор кодека/Подсказка : MP3
    Продолжительность : 1 ч. 0 м.
    Вид битрейта : Постоянный
    Битрейт : 192 Кбит/сек
    Каналы : 2 канала
    Частота : 48, 0 КГц
    Метод сжатия : С потерями
    Размер потока : 83, 6 Мбайт (10%)
    Выравнивание : Разделение по промежуткам
    Продолжительность промежутка : 40 мс. (1, 00 видеокадр)
    Время предзагрузки промежутка : 500 мс.


    Скриншоты для ознакомления




    Онлайн видео Чужестранка



    Чужестранка/Outlander (2014) WEB-DLRip (сезон 1, серии 1-9 из 16) SET (oбновляемая)
    загрузка...
    Рейтинг →
     (голосов: 1, оценка 5/5, голосовать можно 1 раз )

    Другие торренты по теме:

  • Чужестранка / Outlander (2014) WEB-DL [H.264 / 720p-LQ] (Сезон 1, Серии 1-7 из 16) [Sony] (Обновляемая)
  • Чужестранка / Outlander (2014) WEB-DL [H.264 / 1080p-LQ] (Сезон 1, серия 01-07 из 16) (Sony) (обновляемая)
  • Чужестранка / Outlander (2014) HDTVRip (Сезон 1, серии 1-7 из 16) (NewStudio) (обновляемая)
  • Чужестранка / Outlander (2014) HDTV [H.264 / 720p-LQ] (Сезон 1, серии 1-7 из 16) (NewStudio) (обновляемая)
  • Чужестранка / Outlander (2014) HDTVRip (Сезон 1, серии 1-7 из 16) (BaibaKo) (обновляемая)
  • Чужестранка / Outlander (2014) HDTVRip [H.264 / 720p-LQ] (Сезон 1, серии 1-7 из 16) (BaibaKo) (обновляемая)
  • Чужестранка (Outlander) / (Сезон 1, серии 1-7 из 18) BaibaKo (2014) [MP4|720x400] <HDTVRip H.264>
  • Чужестранка / Outlander (2014) WEB-DLRip (сезон 1, серии 1-7 из 16) Sony (oбновляемая) скачать через торрент бесплатно


    • Комментарии (0):

      Информация

      Информация

        Посетители, находящиеся в группе Гости, не могут оставлять комментарии в данной новости.

        ↓ Меню




        ↓ Опрос

        Вы добавили сайт в закладки?
        Да
        Нет


        Top 10 за месяц (Фильмы)