.
Авторизация | Регистрация
Хочешь лучшие торренты? Добавь свой email!
Добавить

Торрент скачать бесплатно

» » Склифосовский 4 (Склиф) (2015) WEB-DLRip [H.264 / 1080p] (сезон 4, серии 1-8 из 24) (обновляемая) скачать через торрент бесплатно




    Склифосовский 4 (Склиф) (2015) WEB-DLRip [H.264 / 1080p] (сезон 4, серии 1-8 из 24) (обновляемая) скачать через торрент бесплатно

    Опубликовал: Админ | Дата: 12-04-2015, 04:01 | Просмотров: 107

    Производство: Кинокомпания Русское, Россия
    Жанр: драма, мелодрама
    Режиссер: Юлия Краснова

    Актеры
    Максим Аверин, Александр Сирин, Мария Куликова, Надежда Горелова, Дмитрий Миллер, Елена Яковлева, Ольга Павловец, Антон Эльдаров, Анна Якунина, Андрей Барило, Константин Юшкевич, Ольга Карева, Светлана Нехороших, Владимир Жеребцов, Александр Соколовский, Екатерина Травова, Александр Чернявский, Марина Могилевская, Евгения Дмитриева, Александр Хованский, Софья Хилькова, Елена Папанова

    Описание

    На первом месте у героев, как и прежде, напряженная работа – спасение человеческих жизней. Но и в личной жизни им предстоит немало испытаний. Брагина ждет новая семейная жизнь –с любимой женщиной Мариной Нарочинской. Однако, обрести покой и счастье им будет совсем непросто. Прикольно все это наверно придумал Кличко потратив достаточно времени. Серьёзной проверкой отношений станет появление в их жизни незаконнорожденной дочери Брагина Вероники – подростка с трудным характером. У Полины сбылась мечта о красивой жизни - теперь у нее есть всё, чего ей так не хватало раньше. Но принесет ли это счастье, и не потеряла ли героиня в погоне за комфортом что-то более важное?

    Дата российской премьеры: 06.04.2015
    Продолжительность: ~ 00: 45: 00 серия
    Качество видео: WEB-DLRip
    Видеокодек: AVC/H.264
    Битрейт видео: ~4000 Kbps
    Размер кадра: 1920x1080 (16: 9)
    Аудиокодек: AC3 2.0
    Битрейт аудио: 192 kbps
    Код:
    Общее
    Уникальный идентификатор : 210504699405749198751548019035556532702 (0x9E5DBAFB9FBA953FBAB11D82DB9BD1DE)
    Полное имя : E:DOWNLOADSСклифосовский (4 сезон любимого сериала) (2015) WEB-DLRip 1080Склифосовский 4 - 01 серия.mkv
    Формат : Matroska
    Версия формата : Version 2
    Размер файла : 1, 31 Гбайт
    Продолжительность : 44 м.
    Режим общего битрейта : Переменный
    Общий поток : 4197 Кбит/сек
    Дата кодирования : UTC 2015-04-11 15:53:50
    Программа кодирования : mkvmerge v6.1.0 (\'Old Devil\') built on Mar 4 2013 09:10:42
    Библиотека кодирования : libebml v1.3.0 + libmatroska v1.4.0
    Видео
    Идентификатор : 1
    Формат : AVC
    Формат/Информация : Advanced Video Codec
    Профиль формата :High@L4.0
    Параметр CABAC формата : Да
    Параметр ReFrames формата : 3 кадра
    Идентификатор кодека : V_MPEG4/ISO/AVC
    Продолжительность : 44 м.
    Вид битрейта : Переменный
    Битрейт : 4000 Кбит/сек
    Максимальный битрейт : 40, 0 Мбит/сек
    Ширина : 1920 пикселей
    Высота : 1080 пикселей
    Соотношение сторон : 16:9
    Режим частоты кадров : Постоянный
    Частота кадров : 25, 000 кадров/сек
    Цветовое пространство : YUV
    Субдискретизация насыщенности : 4:2:0
    Битовая глубина : 8 бит
    Тип развёртки : Прогрессивная
    Бит/(Пиксели*Кадры) : 0.077
    Размер потока : 1, 23 Гбайт (93%)
    Библиотека кодирования : x264 core 142 r2389 956c8d8
    Настройки программы : cabac=1/ref=3/deblock=1:0:0/analyse=0x3:0x133/me=umh/subme=7/psy=1/psy_rd=1.00:0.00/mixed_ref=1/me_range=32/chroma_me=1/trellis=2/8x8dct=1/cqm=0/deadzone=21, 11/fast_pskip=1/chroma_qp_offset=-2/threads=12/lookahead_threads=2/sliced_threads=0/nr=0/decimate=1/interlaced=0/bluray_compat=0/constrained_intra=0/bframes=0/weightp=0/keyint=75/keyint_min=26/scenecut=40/intra_refresh=0/rc_lookahead=50/rc=2pass/mbtree=0/bitrate=4000/ratetol=1.0/qcomp=0.20/qpmin=10/qpmax=51/qpstep=4/cplxblur=20.0/qblur=0.5/vbv_maxrate=5000/vbv_bufsize=5000/nal_hrd=none/filler=0/ip_ratio=1.40/aq=1:1.0
    Default : Да
    Forced : Нет
    Основные цвета : BT.709
    Характеристики трансфера : BT.709
    Коэффициенты матрицы : BT.709
    colour_range : Limited
    Аудио
    Идентификатор : 2
    Формат : AC-3
    Формат/Информация : Audio Coding 3
    Расширение режима : CM (complete main)
    Параметр Endianness формата : Big
    Идентификатор кодека : A_AC3
    Продолжительность : 44 м.
    Вид битрейта : Постоянный
    Битрейт : 192 Кбит/сек
    Каналы : 2 канала
    Расположение каналов : Front: L R
    Частота : 44, 1 КГц
    Битовая глубина : 16 бит
    Метод сжатия : С потерями
    Размер потока : 61, 6 Мбайт (5%)
    Default : Да
    Forced : Нет


    Скриншоты для ознакомления




    Склифосовский 4 (Склиф) (2015) WEB-DLRip [H.264/1080p] (сезон 4, серии 1-8 из 24) (обновляемая)
    загрузка...
    Рейтинг →
     (голосов: 1, оценка 5/5, голосовать можно 1 раз )

    Другие торренты по теме:

  • Склифосовский 4 (Склиф) (2015) WEB-DLRip [H.264 / 720p] (сезон 4, серии 1-8 из 24) (обновляемая) скачать через торрент бесплатно
  • Склифосовский 4 (Склиф) (2015) WEB-DLRip (сезон 4, серии 1-24 из 24) скачать через торрент бесплатно
  • Склифосовский-4 (Склиф) (2015) SATRip (серии 1-2 из 24) (обновляемая) скачать через торрент бесплатно
  • Склифосовский / Склиф (2016) SATRip [H.264] (сезон 5, серии 1-4 из 16) (обновляемая)


    • Комментарии (0):

      Информация

      Информация

        Посетители, находящиеся в группе Гости, не могут оставлять комментарии в данной новости.

        ↓ Меню




        ↓ Опрос

        Вы добавили сайт в закладки?
        Да
        Нет


        Top 10 за месяц (Фильмы)