.
Авторизация | Регистрация
Хочешь лучшие торренты? Добавь свой email!
Добавить

Торрент скачать бесплатно

» » Раскопки / Dig (2015) WEB-DL [H.264 / 720p-LQ] (сезон 1, серии 1-5 из 10) Ideafilm (обновляемая) скачать через торрент бесплатно




    Раскопки / Dig (2015) WEB-DL [H.264 / 720p-LQ] (сезон 1, серии 1-5 из 10) Ideafilm (обновляемая) скачать через торрент бесплатно

    Опубликовал: Админ | Дата: 10-04-2015, 04:00 | Просмотров: 108

    Производство: США
    Жанр: драма, приключения
    Режиссер: С.Дж. Кларксон

    Актеры
    Яэль Эйтан, Зен МакГрат, Ори Феффер, Гай Селник, Брайан Барела, Ричард Бил, Дерек Блэкни и др.

    Описание

    Питер, агент ФБР в Иерусалиме, выясняет обстоятельства убийства молодой женщины-археолога. В ходе расследования он узнаёт о многовековом заговоре, который способен радикально повлиять на ход человеческой истории.

    Дата мировой премьеры: 5 марта 2015
    Продолжительность: ~00: 44: 00 серия (1 серия ~01: 05: 00)
    Качество видео: WEB-DL 720p
    Перевод: Многоголосый закадровый, профессиональный - IDEAFILM
    Видеокодек: AVC/H.264
    Битрейт видео: ~3500 kbps
    Размер кадра: 1280х720 (16: 9)
    Аудио Rus: (AC3, 48, 0 kHz, 6 ch, 448 kb/s, CBR) - многоголосый закадровый
    Аудио Eng: (AC3, 48, 0 kHz, 6 ch, 384 kb/s, CBR) - оригинал
    Код:

    General
    Unique ID : 227183458892649888813731037076240169127 (0xAAE9F1508861B7A5A5984851DB8378A7)
    Format : Matroska
    Format version : Version 4/Version 2
    File size : 1.43 GiB
    Duration : 41mn 50s
    Overall bit rate : 4 893 Kbps
    Encoded date : UTC 2015-04-05 12:16:28
    Writing application : mkvmerge v6.7.0 (\'Back to the Ground\') 32bit built on Jan 8 2014 15:03:17
    Writing library : libebml v1.3.0 + libmatroska v1.4.1
    Video
    ID : 1
    Format : AVC
    Format/Info : Advanced Video Codec
    Format profile :High@L3.2
    Format settings, CABAC : Yes
    Format settings, ReFrames : 2 frames
    Codec ID : V_MPEG4/ISO/AVC
    Duration : 41mn 50s
    Bit rate : 3 964 Kbps
    Width : 1 280 pixels
    Height : 720 pixels
    Display aspect ratio : 16:9
    Frame rate mode : Constant
    Frame rate : 23.976 fps
    Standard : NTSC
    Color space : YUV
    Chroma subsampling : 4:2:0
    Bit depth : 8 bits
    Scan type : Progressive
    Bits/(Pixel*Frame) : 0.179
    Stream size : 1.16 GiB (81%)
    Language : English
    Default : Yes
    Forced : No
    Color primaries : BT.709
    Transfer characteristics : BT.709
    Matrix coefficients : BT.709
    Audio #1
    ID : 2
    Format : AC-3
    Format/Info : Audio Coding 3
    Mode extension : CM (complete main)
    Format settings, Endianness : Big
    Codec ID : A_AC3
    Duration : 41mn 50s
    Bit rate mode : Constant
    Bit rate : 448 Kbps
    Channel count : 6 channels
    Channel positions : Front: L C R, Side: L R, LFE
    Sampling rate : 48.0 KHz
    Bit depth : 16 bits
    Compression mode : Lossy
    Stream size : 134 MiB (9%)
    Title : IDEAFILM.BIZ
    Language : Russian
    Default : Yes
    Forced : No
    Audio #2
    ID : 3
    Format : AC-3
    Format/Info : Audio Coding 3
    Mode extension : CM (complete main)
    Format settings, Endianness : Big
    Codec ID : A_AC3
    Duration : 41mn 50s
    Bit rate mode : Constant
    Bit rate : 384 Kbps
    Channel count : 6 channels
    Channel positions : Front: L C R, Side: L R, LFE
    Sampling rate : 48.0 KHz
    Bit depth : 16 bits
    Compression mode : Lossy
    Stream size : 115 MiB (8%)
    Language : English
    Default : No
    Forced : No


    Скриншоты для ознакомления




    Онлайн видео Раскопки



    Раскопки/Dig (2015) WEB-DL [H.264/720p-LQ] (сезон 1, серии 1-5 из 10) Ideafilm (обновляемая)
    загрузка...
    Рейтинг →
     (голосов: 1, оценка 5/5, голосовать можно 1 раз )

    Другие торренты по теме:

  • Раскопки / Dig (2015) HDTVRip (сезон 1, серии 1 из 10) BaibaKo (обновляемая) скачать через торрент бесплатно
  • Раскопки / Раскопка / Dig (2015) WEB-DLRip (сезон 1, серии 1 из 10) NewStudio (обновляемая) скачать через торрент бесплатно


    • Комментарии (0):

      Информация

      Информация

        Посетители, находящиеся в группе Гости, не могут оставлять комментарии в данной новости.

        ↓ Меню




        ↓ Опрос

        Вы добавили сайт в закладки?
        Да
        Нет


        Top 10 за месяц (Фильмы)