.
Авторизация | Регистрация
Хочешь лучшие торренты? Добавь свой email!
Добавить

Торрент скачать бесплатно

» » Салем / Salem (2015) WEB-DL [H.264 / 720p-LQ] (сезон 2, серии 1 из 13) (AlexFilm) (обновляемая) скачать через торрент бесплатно




    Салем / Salem (2015) WEB-DL [H.264 / 720p-LQ] (сезон 2, серии 1 из 13) (AlexFilm) (обновляемая) скачать через торрент бесплатно

    Опубликовал: Админ | Дата: 8-04-2015, 04:00 | Просмотров: 169

    Производство: США
    Жанр: драма, триллер, фантастика
    Режиссер: Ричард Шепард

    Актеры
    Шэйн Уэст, Джанет Монтгомери, Эжур Дэун, Моргана Шоу, Сет Гейбл, Ксандер Беркли, Эшли Мадекве, Элиз Эберли, Джон Артур, Кристофер Берри и др.

    Описание

    Не смотря на то, что Мэри Сибли все ещё удерживает свою власть, её положению угрожает бессчётное множество других ведьм: как новых, так и шокирующе знакомых.
    После удачно проведённого великого обряда Салем становится лакомым кусочком для многих, ранее неизвестных людей, преследующих свои интересы, среди которых - загадочный доктор Сэмьюэл Уэйнрайт и эффектная графиня Марбург.
    Это война. Бой начался, и линия фронта проходит через Салем.

    Продолжительность: ~00: 50: 00 серия
    Качество видео: WEB-DL 720p
    Перевод: Многоголосый закадровый, профессиональный -AlexFilm
    Автор перевода: Константин Кривоногов
    Озвучка: Ирина Воронова, Татьяна Манетина, Александр Воронов, Михаил Суслов, Владимир Курдов
    Монтаж и сведение звука: Михаил Шорыгин
    Видеокодек: AVC
    Формат: MKV
    Битрейт видео: ~4000 Kbps
    Размер кадра: 1280x720 (16: 9)
    Аудио Rus: AC-3, 48.0 KHz, 6 ch, 384 Kbps, CBR - многоголосый закадровый
    Аудио Eng: AC-3, 48.0 KHz, 6 ch, 384 Kbps, CBR - оригинал
    General
    Complete name : F: СериалраздачаSalem.S02.WEBDLRip.720p.AlexFilmSalem.s02e01.WEB-DL.720p.Rus.Eng.AlexFilm.mkv
    Format : Matroska
    File size : 1.64 GiB
    Duration : 50mn 14s
    Overall bit rate : 4 678 Kbps
    Movie name : Salem 2x01 @ AlexFilm
    Encoded date : UTC 2015-04-06 21: 02: 29
    Writing application : mkvmerge v7.1.0 (\'Good Love\') 64bit built on Jul 27 2014 13: 06: 55
    Writing library : libebml v1.3.0 + libmatroska v1.4.1
    Video
    ID : 1
    Format : AVC
    Format/Info : Advanced Video Codec
    Format profile : High@L3.1
    Format settings, CABAC : No
    Format settings, ReFrames : 2 frames
    Muxing mode : Container profile=Unknown@3.1
    Codec ID : V_MPEG4/ISO/AVC
    Duration : 50mn 14s
    Bit rate mode : Variable
    Bit rate : 3 817 Kbps
    Width : 1 280 pixels
    Height : 720 pixels
    Display aspect ratio : 16: 9
    Frame rate : 23.976 fps
    Color space : YUV
    Chroma subsampling : 4: 2: 0
    Bit depth : 8 bits
    Scan type : Progressive
    Bits/(Pixel*Frame) : 0.173
    Stream size : 1.34 GiB (82%)
    Language : English
    Color primaries : BT.709-5, BT.1361, IEC 61966-2-4, SMPTE RP177
    Transfer characteristics : BT.709-5, BT.1361
    Matrix coefficients : BT.709-5, BT.1361, IEC 61966-2-4 709, SMPTE RP177
    Audio #1
    ID : 2
    Format : AC-3
    Format/Info : Audio Coding 3
    Mode extension : CM (complete main)
    Codec ID : A_AC3
    Duration : 50mn 14s
    Bit rate mode : Constant
    Bit rate : 384 Kbps
    Channel(s) : 6 channels
    Channel positions : Front: L C R, Side: L R, LFE
    Sampling rate : 48.0 KHz
    Bit depth : 16 bits
    Stream size : 138 MiB (8%)
    Title : DD5.1 AlexFilm
    Language : Russian
    Audio #2
    ID : 3
    Format : AC-3
    Format/Info : Audio Coding 3
    Mode extension : CM (complete main)
    Codec ID : A_AC3
    Duration : 50mn 14s
    Bit rate mode : Constant
    Bit rate : 384 Kbps
    Channel(s) : 6 channels
    Channel positions : Front: L C R, Side: L R, LFE
    Sampling rate : 48.0 KHz
    Bit depth : 16 bits
    Stream size : 138 MiB (8%)
    Title : DD5.1 Original
    Language : English


    Скриншоты для ознакомления




    Онлайн видео Салем



    Салем/Salem (2015) WEB-DL [H.264/720p-LQ] (сезон 2, серии 1 из 13) (AlexFilm) (обновляемая)
    загрузка...
    Рейтинг →
     (голосов: 1, оценка 4/5, голосовать можно 1 раз )

    Другие торренты по теме:

  • Салем / Salem (2015) WEB-DLRip (сезон 2, серии 1 из ) NewStudio (обновляемая) скачать через торрент бесплатно
  • Салем / Salem (2015) WEB-DLRip (сезон 2, серии 1 из 13) LostFilm (обновляемая) скачать через торрент бесплатно
  • Салем / Salem (2015) WEB-DLRip (сезон 2, серии 1 из 13) AlexFilm (обновляемая) скачать через торрент бесплатно
  • Салем / Salem (2015) WEB-DL [H.264 / 1080p-LQ] (сезон 2, серии 1 из 13) (LostFilm, NewStudio, AlexFilm) (обновляемая) скачать через торрент бесплатно
  • Салем / Salem (2015) WEB-DLRip [H.264] (Сезон 2, серии 1-6 из 13) BaibaKo [MP4|720x400] скачать через торрент бесплатно
  • Салем / Salem (2016) WEB-DLRip (Сезон 3, Серии 01-03 из 13) LostFilm (обновляемая)
  • Салем / Salem (2016) WEB-DL [H.264 / 720p-LQ] (сезон 3, серии 01-03 из 13) LostFilm (обновляемая)
  • Салем / Salem (2016) WEB-DL [H.264 / 720p-LQ] (сезон 3, серии 01-03 из 13) NewStudio (обновляемая)


    • Комментарии (0):

      Информация

      Информация

        Посетители, находящиеся в группе Гости, не могут оставлять комментарии в данной новости.

        ↓ Меню




        ↓ Опрос

        Вы добавили сайт в закладки?
        Да
        Нет


        Top 10 за месяц (Фильмы)