.
Авторизация | Регистрация
Хочешь лучшие торренты? Добавь свой email!
Добавить

Торрент скачать бесплатно

» » ЧОП (2015) SATRip (серии 1-2 из 20) (обновляемая) скачать через торрент бесплатно




    ЧОП (2015) SATRip (серии 1-2 из 20) (обновляемая) скачать через торрент бесплатно

    Опубликовал: Админ | Дата: 8-04-2015, 04:00 | Просмотров: 172

    Производство: Россия, ТНТ
    Жанр: комедия
    Режиссер: Михаил Соловьев

    Актеры
    Сергей Степин, Олег Масленников-Войтов, Сергей Терещенко, Артур Гальченко, Денис Бузин, Яна Кошкина, Дмитрий Белоцерковский, Али Алиев, Ислам Мамергов, Виталий Гумеров

    Описание

    Сериал повествует о жизни бизнес-центра Соловей, в котором трудится частное охранное предприятие Кедр. Лев Борисович, начальник ЧОП, является, как он сам считает, не только охранником материальных, но и морально-нравственных ценностей. В его подчинении находятся четыре охранника — Федя, Толя, Слава и новичок Андрей. Андрей мечтает стать рок-звездой, поэтому работой охранника не дорожит, но в первый же рабочий день встречает Снежану, работницу спа-салона, и потихоньку втягивается в будни бизнес-центра.
    Ограбление спермобанка, взрыв здания, разбитая Феррари — это не новый фильм с Джейсоном Стетхемом, а всего лишь история о паре дней из скромной жизни охранников бизнес-центра Соловей.

    Дата российской премьеры: 06.04.2015
    Продолжительность: ~00: 24: 00 серия
    Качество видео: SATRip
    Видеокодек: DivX
    Битрейт видео: ~1500 Кбит/с
    Размер кадра: 720x400
    Аудиокодек: MP3, 2 ch
    Битрейт аудио: 128 Кбит/с
    Код:

    Общее
    Полное имя : D:!ЗагрузкиCHOP.SATRipCHOP.01.SATRip.avi
    Формат : AVI
    Формат/Информация : Audio Video Interleave
    Размер файла : 297 Мбайт
    Продолжительность : 25 м.
    Общий поток : 1642 Кбит/сек
    Видео
    Идентификатор : 0
    Формат : MPEG-4 Visual
    Параметр BVOP формата : 1
    Параметр QPel формата : Нет
    Параметр GMC формата : Без точки перехода
    Параметр матрицы формата : Default (H.263)
    Идентификатор кодека : DX50
    Идентификатор кодека/Подсказка : DivX 5
    Продолжительность : 25 м.
    Битрейт : 1500 Кбит/сек
    Ширина : 720 пикселей
    Высота : 400 пикселей
    Соотношение сторон : 16:9
    Частота кадров : 25, 000 кадров/сек
    Цветовое пространство : YUV
    Субдискретизация насыщенности : 4:2:0
    Битовая глубина : 8 бит
    Тип развёртки : Прогрессивная
    Метод сжатия : С потерями
    Бит/(Пиксели*Кадры) : 0.208
    Размер потока : 271 Мбайт (91%)
    Библиотека кодирования : DivX 6.8.5 (UTC 2009-08-20)
    Аудио
    Идентификатор : 1
    Формат : MPEG Audio
    Версия формата : Version 1
    Профиль формата : Layer 3
    Режим : Joint stereo
    Расширение режима : MS Stereo
    Идентификатор кодека : 55
    Идентификатор кодека/Подсказка : MP3
    Продолжительность : 25 м.
    Вид битрейта : Постоянный
    Битрейт : 128 Кбит/сек
    Каналы : 2 канала
    Частота : 48, 0 КГц
    Метод сжатия : С потерями
    Размер потока : 23, 1 Мбайт (8%)
    Выравнивание : Соединение по промежуткам
    Продолжительность промежутка : 24 мс. (0, 60 видеокадр)


    Скриншоты для ознакомления




    Онлайн видео ЧОП (2015) SATRip (серии 1



    ЧОП (2015) SATRip (серии 1-2 из 20) (обновляемая)
    загрузка...
    Рейтинг →
     (голосов: 1, оценка 3/5, голосовать можно 1 раз )

    Другие торренты по теме:

  • ЧОП (2015) WEB-DLRip (серии 1- из 20) (обновляемая) скачать через торрент бесплатно
  • ЧОП (2015) WEB-DLRip [H.264 / 720p-LQ] (серии 1- из 20) (обновляемая) скачать через торрент бесплатно
  • ЧОП (2015) WEB-DLRip [H.264] (серии 1-16 из 16) скачать через торрент бесплатно


    • Комментарии (0):

      Информация

      Информация

        Посетители, находящиеся в группе Гости, не могут оставлять комментарии в данной новости.

        ↓ Меню




        ↓ Опрос

        Вы добавили сайт в закладки?
        Да
        Нет


        Top 10 за месяц (Фильмы)