.
Авторизация | Регистрация
Хочешь лучшие торренты? Добавь свой email!
Добавить

Торрент скачать бесплатно

» » Викинги / Vikings (2015) WEB-DLRip [H.264] (сезон 3, серии 1-7 из 10) (AlexFilm+LostFilm+NewStudio) (обновляемая) скачать через торрент бесплатно




    Викинги / Vikings (2015) WEB-DLRip [H.264] (сезон 3, серии 1-7 из 10) (AlexFilm+LostFilm+NewStudio) (обновляемая) скачать через торрент бесплатно

    Опубликовал: Админ | Дата: 8-04-2015, 04:00 | Просмотров: 114

    Производство: Ирландия, Канада
    Жанр: боевик, драма, история
    Режиссер: Йохан Ренк, Киаран Доннелли, Кен Джиротти

    Актеры
    Трэвис Фиммел, Клайв Стэнден, Гэбриел Бирн, Кэтрин Уинник, Джессалин Гилсиг, Джордж Благден, Густаф Скарсгард, Торбьорн Харр, Владимир Кулих, Донал Лог, Айван Кэй, Мод Хирст, Эрик Хиггинс, Герард Маккарти, Юко Ахола, Эми Де Брюн, Сэм Смит, Билл Гибсон, Кевин Мюррэй и др.

    Описание

    Сериал рассказывает об отряде викингов Рагнара. Он восстал, чтобы стать королём племён викингов. О таком странном сюжете не догадывалась даже Волочкова. Норвежская легенда гласит, что он был прямым потомком Одина, бога войны и воинов.

    Продолжительность: ~00: 45: 00 серия
    Качество видео: WEB-DLRip (AVC)
    Перевод: Многоголосый закадровый, профессиональный -AlexFilm
    Многоголосый закадровый, профессиональный -LostFilm
    Многоголосый закадровый, профессиональный -NewStudio
    Вид субтитров: вшитые отключаемые
    Язык субтитров: английский
    Видеокодек: AVC
    Формат: MKV
    Битрейт видео: ~2 348 Kbps
    Размер кадра: 1024x576 (16: 9)
    Аудио #1: AC-3, 48.0 KHz, 6 ch, 384 Kbps, CBR (Russian) - многоголосый закадровый -AlexFilm
    Аудио #2: AC-3, 48.0 KHz, 6 ch, 384 Kbps, CBR (Russian) - многоголосый закадровый -LostFilm
    Аудио #3: AC-3, 48.0 KHz, 6 ch, 384 Kbps, CBR (Russian) - многоголосый закадровый -NewStudio
    Аудио #4 : AC-3, 48.0 KHz, 6 ch, 384 Kbps, CBR (English) - оригинал
    Сэмпл
    General
    Complete name : F: ФильмVikings.S03.2015.WEB-DLRip.AVC.ИВVikings.S03E01.WEB-DLRip.AVC.3xRus.Eng.ИВ.mkv
    Format : Matroska
    File size : 1.23 GiB
    Duration : 45mn 12s
    Overall bit rate : 3 884 Kbps
    Movie name : Vikings 3x01 (2015) - Release ИВ
    Encoded date : UTC 2015-03-28 11: 02: 16
    Writing application : mkvmerge v5.8.0 (\'No Sleep/Pillow\') built on Sep 2 2012 15: 37: 04
    Writing library : libebml v1.2.3 + libmatroska v1.3.0
    Video
    ID : 1
    Format : AVC
    Format/Info : Advanced Video Codec
    Format profile : High@L3.1
    Format settings, CABAC : Yes
    Format settings, ReFrames : 2 frames
    Muxing mode : Container profile=Unknown@3.1
    Codec ID : V_MPEG4/ISO/AVC
    Duration : 45mn 12s
    Bit rate : 2 348 Kbps
    Width : 1 024 pixels
    Height : 576 pixels
    Display aspect ratio : 16: 9
    Frame rate mode : Variable
    Frame rate : 23.976 fps
    Color space : YUV
    Chroma subsampling : 4: 2: 0
    Bit depth : 8 bits
    Scan type : Progressive
    Bits/(Pixel*Frame) : 0.166
    Stream size : 734 MiB (58%)
    Title : Vikings 3x01 (2015) - Release ИВ
    Writing library : x264 core 129
    Encoding settings : cabac=1/ref=2/deblock=1: 0: 0/analyse=0x3: 0x113/me=hex/subme=6/psy=1/psy_rd=1.00: 0.00/mixed_ref=1/me_range=16/chroma_me=1/trellis=0/8x8dct=1/cqm=0/deadzone=21, 11/fast_pskip=1/chroma_qp_offset=-2/threads=2/lookahead_threads=1/sliced_threads=0/nr=0/decimate=1/interlaced=0/bluray_compat=0/constrained_intra=0/bframes=0/weightp=2/keyint=250/keyint_min=25/scenecut=40/intra_refresh=0/rc_lookahead=40/rc=2pass/mbtree=1/bitrate=2348/ratetol=1.0/qcomp=0.60/qpmin=10/qpmax=51/qpstep=4/cplxblur=20.0/qblur=0.5/ip_ratio=1.41/aq=1: 1.00
    Language : English
    Audio #1
    ID : 2
    Format : AC-3
    Format/Info : Audio Coding 3
    Mode extension : CM (complete main)
    Muxing mode : Header stripping
    Codec ID : A_AC3
    Duration : 45mn 12s
    Bit rate mode : Constant
    Bit rate : 384 Kbps
    Channel(s) : 6 channels
    Channel positions : Front: L C R, Side: L R, LFE
    Sampling rate : 48.0 KHz
    Bit depth : 16 bits
    Stream size : 124 MiB (10%)
    Title : AlexFilm
    Language : Russian
    Audio #2
    ID : 3
    Format : AC-3
    Format/Info : Audio Coding 3
    Mode extension : CM (complete main)
    Muxing mode : Header stripping
    Codec ID : A_AC3
    Duration : 45mn 12s
    Bit rate mode : Constant
    Bit rate : 384 Kbps
    Channel(s) : 6 channels
    Channel positions : Front: L C R, Side: L R, LFE
    Sampling rate : 48.0 KHz
    Bit depth : 16 bits
    Stream size : 124 MiB (10%)
    Title : LostFilm
    Language : Russian
    Audio #3
    ID : 4
    Format : AC-3
    Format/Info : Audio Coding 3
    Mode extension : CM (complete main)
    Muxing mode : Header stripping
    Codec ID : A_AC3
    Duration : 45mn 12s
    Bit rate mode : Constant
    Bit rate : 384 Kbps
    Channel(s) : 6 channels
    Channel positions : Front: L C R, Side: L R, LFE
    Sampling rate : 48.0 KHz
    Bit depth : 16 bits
    Stream size : 124 MiB (10%)
    Title : NewStudio
    Language : Russian
    Audio #4
    ID : 5
    Format : AC-3
    Format/Info : Audio Coding 3
    Mode extension : CM (complete main)
    Muxing mode : Header stripping
    Codec ID : A_AC3
    Duration : 45mn 12s
    Bit rate mode : Constant
    Bit rate : 384 Kbps
    Channel(s) : 6 channels
    Channel positions : Front: L C R, Side: L R, LFE
    Sampling rate : 48.0 KHz
    Bit depth : 16 bits
    Stream size : 124 MiB (10%)
    Title : English
    Language : English
    Text
    ID : 6
    Format : UTF-8
    Codec ID : S_TEXT/UTF8
    Codec ID/Info : UTF-8 Plain Text
    Title : eng-sub
    Language : English


    Скриншоты для ознакомления




    Онлайн видео Викинги



    Викинги/Vikings (2015) WEB-DLRip [H.264] (сезон 3, серии 1-7 из 10) (AlexFilm+LostFilm+NewStudio) (обновляемая)
    загрузка...
    Рейтинг →
     (голосов: 1, оценка 3/5, голосовать можно 1 раз )

    Другие торренты по теме:

  • Викинги / Vikings (2013) WEB-DLRip [H.264 / 1080p-LQ] (сезон 1-4, серии 1-49 из 49) LostFilm
  • Викинги / Vikings (2014) BD-Remux [1080p] (сезон 2, серии 1-10 из 10) (AlexFilm, NewStudio, LostFilm, BaibaKo) скачать через торрент бесплатно
  • Викинги / Northmen - A Viking Saga (2014) WEB-DLRip [H.264]
  • Викинги / Northmen - A Viking Saga (2014) WEB-DLRip
  • Викинги / Northmen - A Viking Saga (2014) WEB-DL [H.264 / 720p-LQ]
  • Викинги / Northmen - A Viking Saga (2014) WEB-DL [H.264 / 1080p-LQ]
  • Викинги / Outlander (2008) BDRip [1080p] [Open Matte]
  • Викинги / Northmen - A Viking Saga (2014) WEB-DLRip [576p] iPad


    • Комментарии (0):

      Информация

      Информация

        Посетители, находящиеся в группе Гости, не могут оставлять комментарии в данной новости.

        ↓ Меню




        ↓ Опрос

        Вы добавили сайт в закладки?
        Да
        Нет


        Top 10 за месяц (Фильмы)