.
Авторизация | Регистрация
Хочешь лучшие торренты? Добавь свой email!
Добавить

Торрент скачать бесплатно

» » Американская Одиссея / American Odyssey (2015) WEB-DL [H.264 / 720p-LQ] (сезон 1, серии 1 из 12) (BaibaKo) (обновляемая) скачать через торрент бесплатно




    Американская Одиссея / American Odyssey (2015) WEB-DL [H.264 / 720p-LQ] (сезон 1, серии 1 из 12) (BaibaKo) (обновляемая) скачать через торрент бесплатно

    Опубликовал: Админ | Дата: 8-04-2015, 04:00 | Просмотров: 104

    Производство: США
    Жанр: драма, триллер
    Режиссер: Джэми Пэйн, Питер Хортон

    Актеры
    Анна Фрил, Питер Фачинелли, ДжонДжош Ромаро, Адевале Акинойе-Агбаже, Трит Уильямс, Даниэлла Пинеда, Нат Муни, Келли МакКрири, Джейк Робинсон, Ронан Саммерс и др.

    Описание

    Политический триллер о разваливающейся на части жизни солдата, корпоративного адвоката и политической активистки. Они оказываются за кулисами военно-промышленного заговора, виновником которого является американская корпорация, связанная с Аль-Каидой.

    Дата мировой премьеры: 5 апреля 2015
    Продолжительность: ~00: 50: 00 серия
    Качество видео: WEB-DL 720p
    Перевод: Многоголосый закадровый, профессиональный -BaibaKo
    Автор перевода: Янина Галицкая и Никита Коваль
    Озвучка: Юлия Котурбаш, Владимир Курдов, Александр Фурман и Акмал Гурезов
    Монтаж: Виталий Ткаченко
    Обложка: Антон Максимов
    Видеокодек: AVC
    Формат: MKV
    Битрейт видео: ~3862 Kbps
    Размер кадра: 1280x720 (16: 9)
    Аудио Rus: AC-3, 48.0 KHz, 6 ch, 384 Kbps, CBR - многоголосый закадровый
    Аудио Eng: AC-3, 48.0 KHz, 6 ch, 384 Kbps, CBR - оригинал
    General
    Complete name : F: СериалраздачаAmerican.Odyssey.s01.HD720p.WEB-DL.Rus.Eng.BaibaKoAmerican.Odyssey.s01e01.HD720p.WEB-DL.Rus.Eng.BaibaKo.tv.mkv
    Format : Matroska
    File size : 1.74 GiB
    Duration : 52mn 52s
    Overall bit rate : 4 716 Kbps
    Movie name : BaibaKo.tv presents - Американская Одиссея 1х01
    Encoded date : UTC 2015-04-07 16: 07: 15
    Writing application : mkvmerge v7.8.0 (\'River Man\') 64bit built on Mar 27 2015 16: 31: 37
    Writing library : libebml v1.3.1 + libmatroska v1.4.2
    Video
    ID : 1
    Format : AVC
    Format/Info : Advanced Video Codec
    Format profile : High@L3.1
    Format settings, CABAC : Yes
    Format settings, ReFrames : 5 frames
    Muxing mode : Container profile=Unknown@3.1
    Codec ID : V_MPEG4/ISO/AVC
    Duration : 52mn 52s
    Bit rate : 3 862 Kbps
    Width : 1 280 pixels
    Height : 720 pixels
    Display aspect ratio : 16: 9
    Frame rate : 23.976 fps
    Color space : YUV
    Chroma subsampling : 4: 2: 0
    Bit depth : 8 bits
    Scan type : Progressive
    Bits/(Pixel*Frame) : 0.175
    Stream size : 1.42 GiB (82%)
    Writing library : x264 core 142 r2479 dd79a61
    Encoding settings : cabac=1/ref=5/deblock=1: -1: -1/analyse=0x3: 0x113/me=umh/subme=8/psy=1/psy_rd=1.00: 0.15/mixed_ref=1/me_range=16/chroma_me=1/trellis=1/8x8dct=1/cqm=0/deadzone=21, 11/fast_pskip=1/chroma_qp_offset=-3/threads=12/lookahead_threads=2/sliced_threads=0/nr=0/decimate=1/interlaced=0/bluray_compat=0/constrained_intra=0/bframes=3/b_pyramid=2/b_adapt=2/b_bias=0/direct=3/weightb=1/open_gop=0/weightp=2/keyint=240/keyint_min=24/scenecut=40/intra_refresh=0/rc_lookahead=50/rc=2pass/mbtree=1/bitrate=3862/ratetol=1.0/qcomp=0.60/qpmin=0/qpmax=69/qpstep=4/cplxblur=20.0/qblur=0.5/vbv_maxrate=17500/vbv_bufsize=17500/nal_hrd=none/filler=0/ip_ratio=1.40/aq=1: 1.00
    Language : English
    Color primaries : BT.709-5, BT.1361, IEC 61966-2-4, SMPTE RP177
    Transfer characteristics : BT.709-5, BT.1361
    Matrix coefficients : BT.709-5, BT.1361, IEC 61966-2-4 709, SMPTE RP177
    Audio #1
    ID : 2
    Format : AC-3
    Format/Info : Audio Coding 3
    Mode extension : CM (complete main)
    Codec ID : A_AC3
    Duration : 52mn 52s
    Bit rate mode : Constant
    Bit rate : 384 Kbps
    Channel(s) : 6 channels
    Channel positions : Front: L C R, Side: L R, LFE
    Sampling rate : 48.0 KHz
    Bit depth : 16 bits
    Stream size : 145 MiB (8%)
    Title : Rus BaibaKo.tv DD5.1
    Language : Russian
    Audio #2
    ID : 3
    Format : AC-3
    Format/Info : Audio Coding 3
    Mode extension : CM (complete main)
    Codec ID : A_AC3
    Duration : 52mn 52s
    Bit rate mode : Constant
    Bit rate : 384 Kbps
    Channel(s) : 6 channels
    Channel positions : Front: L C R, Side: L R, LFE
    Sampling rate : 48.0 KHz
    Bit depth : 16 bits
    Stream size : 145 MiB (8%)
    Title : Original DD5.1
    Language : English


    Скриншоты для ознакомления




    Онлайн видео Американская Одиссея



    Американская Одиссея/American Odyssey (2015) WEB-DL [H.264/720p-LQ] (сезон 1, серии 1 из 12) (BaibaKo) (обновляемая)
    загрузка...
    Рейтинг →
     (голосов: 1, оценка 3/5, голосовать можно 1 раз )

    Другие торренты по теме:

  • Американская одиссея / Новая одиссея / American Odyssey (2015) WEB-DLRip [H.264] (Сезон 1, серии 1-5 из 12) LostFilm [MP4|1280x720] скачать через торрент бесплатно
  • Американская одиссея / American Odyssey (2015) WEB-DLRip (сезон 1, серии 1 из 12) BaibaKo (обновляемая) скачать через торрент бесплатно
  • Американская одиссея / American Odyssey (2015) WEB-DLRip (сезон 1, серии 1 из 12) NewStudio (обновляемая) скачать через торрент бесплатно
  • Американская одиссея / American Odyssey (2015) WEB-DLRip (сезон 1, серии 1 из 12) LostFilm (обновляемая) скачать через торрент бесплатно
  • Американская одиссея / American Odyssey (2015) WEB-DLRip [H.264] (Сезон 1, серии 1-5 из 12) BaibaKo [MP4|720x400] скачать через торрент бесплатно
  • Американская Одиссея / American Odyssey (2015) WEB-DL [H.264 / 1080p-LQ] (сезон 1, серии 1-5 из 12) (LostFilm, NewStudio, BaibaKo) (обновляемая) скачать через торрент бесплатно


    • Комментарии (0):

      Информация

      Информация

        Посетители, находящиеся в группе Гости, не могут оставлять комментарии в данной новости.

        ↓ Меню




        ↓ Опрос

        Вы добавили сайт в закладки?
        Да
        Нет


        Top 10 за месяц (Фильмы)