.
Авторизация | Регистрация
Хочешь лучшие торренты? Добавь свой email!
Добавить

Торрент скачать бесплатно

» » Седьмая руна (2014) SATRip (сезон 1, серии 1-2 из 8) (обновляемая) скачать через торрент бесплатно




    Седьмая руна (2014) SATRip (сезон 1, серии 1-2 из 8) (обновляемая) скачать через торрент бесплатно

    Опубликовал: Админ | Дата: 8-04-2015, 04:00 | Просмотров: 114

    Производство: Россия
    Жанр: детектив, триллер, приключения
    Режиссер: Сергей Попов

    Актеры
    Юрий Колокольников, Агния Кузнецова, Юлия Снигирь, Виктор Сухоруков, Роман Мадянов, Дарья Екамасова, Юрий Цурило, Дмитрий Куличков, Сергей Маркеев, Александр Нестеров (III), Сергей Федоров (VI), Евгения Осипова, Станислав Мухамадеев, Дмитрий Ульянов, Олег Чугунов, Андрей Марусин, Артём Лощилин, Наум Швец, Арсений Кудряшов и др.

    Описание

    В городе Н-ск при загадочных обстоятельствах погибает дочь губернатора. Для выяснения обстоятельств её смерти в город Н-ск из Москвы приезжает следователь Олег Нестеров. В том месте, где нашли тело девушки, проходила ролевая игра по карело-финскому эпосу Калевала, и председатель ролевиков Вера параллельно начинает свое расследование. Однако новые жертвы и серия загадочных событий все больше запутывают Олега и Веру. А вскоре Нестеров понимает, что в Н-ске играют не только ролевики. И банкир, и прокурор, и губернатор вовлечены в некую странную азартную игру, смысл которой скрыт от непосвященных.

    Дата российской премьеры: 5 апреля 2015
    Продолжительность: ~ 00: 48: 00 серия
    Качество видео: SATRip
    Видеокодек: Xvid
    Битрейт видео: ~1560 Кбит/с
    Размер кадра: 720x400
    Аудиокодек: AC3 2.0
    Битрейт аудио: 2 ch, 192 Кбит/с
    Субтитры: вшитые неотключаемые (иврит)
    Сэмпл: Скачать
    Код:

    General
    Complete name : Sedmaya.Runa.2015.SATRip1.Седьмая руна.2015.SATRip.avi
    Format : AVI
    Format/Info : Audio Video Interleave
    File size : 601 MiB
    Duration : 47mn 4s
    Overall bit rate : 1 784 Kbps
    Writing application : Lavf53.19.0
    Video
    ID : 0
    Format : MPEG-4 Visual
    Format profile : Advanced Simple@L5
    Format settings, BVOP : 1
    Format settings, QPel : No
    Format settings, GMC : No warppoints
    Format settings, Matrix : Custom
    Codec ID : XVID
    Codec ID/Hint : XviD
    Duration : 47mn 4s
    Bit rate : 1 581 Kbps
    Width : 720 pixels
    Height : 400 pixels
    Display aspect ratio : 16:9
    Frame rate : 25.000 fps
    Color space : YUV
    Chroma subsampling : 4:2:0
    Bit depth : 8 bits
    Scan type : Progressive
    Compression mode : Lossy
    Bits/(Pixel*Frame) : 0.220
    Stream size : 532 MiB (89%)
    Writing library : XviD 73
    Audio
    ID : 1
    Format : AC-3
    Format/Info : Audio Coding 3
    Mode extension : CM (complete main)
    Codec ID : 2000
    Duration : 47mn 4s
    Bit rate mode : Constant
    Bit rate : 192 Kbps
    Channel(s) : 2 channels
    Channel positions : Front: L R
    Sampling rate : 48.0 KHz
    Bit depth : 16 bits
    Compression mode : Lossy
    Stream size : 64.7 MiB (11%)
    Alignment : Aligned on interleaves
    Interleave, duration : 32 ms (0.80 video frame)


    Скриншоты для ознакомления




    Онлайн видео Седьмая руна (2014) SATRip (сезон любимого сериала 1, серии 1



    Седьмая руна (2014) SATRip (сезон 1, серии 1-2 из 8) (обновляемая)
    загрузка...
    Рейтинг →
     (голосов: 1, оценка 5/5, голосовать можно 1 раз )

    Другие торренты по теме:

  • Седьмая руна (2014) SATRip [H.264] (серии 1-2 из 8) (обновляемая) скачать через торрент бесплатно
  • Седьмая руна (2014) WEB-DL [H.264 / 1080p-LQ] (серии 1-8 из 8)
  • Седьмая руна (2014) WEB-DLRip (серии 1-8 из 8)


    • Комментарии (0):

      Информация

      Информация

        Посетители, находящиеся в группе Гости, не могут оставлять комментарии в данной новости.

        ↓ Меню




        ↓ Опрос

        Вы добавили сайт в закладки?
        Да
        Нет


        Top 10 за месяц (Фильмы)