.
Авторизация | Регистрация
Хочешь лучшие торренты? Добавь свой email!
Добавить

Торрент скачать бесплатно

» » Беты / Betas (2013) WEB-DLRip [720p] (сезон 1, серия 1-4 из 11) BaibaKo (обновляемая) скачать через торрент бесплатно




    Беты / Betas (2013) WEB-DLRip [720p] (сезон 1, серия 1-4 из 11) BaibaKo (обновляемая) скачать через торрент бесплатно

    Опубликовал: Админ | Дата: 7-04-2015, 04:00 | Просмотров: 125

    Производство: США
    Жанр: комедия
    Режиссер: Майкл Леманн, Тодд Штраус-Шульсон, Энди Теннант

    Актеры
    Джо Диникол, Каран Сони, Джон Дэйли, Чарли Сэкстон, Майя Эрскин, Эд Бегли мл., Мадлен Зима, Тайсон Риттер, Марк Л. Янг и др.

    Описание

    В Силиконовой долине правильный алгоритм может сделать вас королем. Стартапы - новые проекты в области высоких технологий - хлеб насущный для 4х друзей-разработчиков, которые ищут инвестора. А между делом попадают в забавные ситуации. Кстати, прообразом приложения BRB, которое они разрабатывают, послужил реальный проект Nearby.

    Дата мировой премьеры: 19 апреля 2013
    Продолжительность: ~00: 25: 00 серия
    Качество видео: WEB-DLRip
    Перевод: Многоголосый закадровый, профессиональный -BaibaKo
    Автор перевода: Наталья Черненко
    Озвучка: Артемий Мирон, Акмал Гурезов, Дмитрий Глебов и Юлия Котурбаш
    Видеокодек: AVC/H.264
    Битрейт видео: ~ 4096 Кбит/сек
    Размер кадра: 1280x720
    Аудио #1: AC-3 6 каналов 48, 0 КГц 384 Кбит/сек - многоголосый закадровый
    Аудио #2: AC-3 6 каналов 48, 0 КГц 384 Кбит/сек - оригинал
    Общее
    Уникальный идентификатор : 253697993612741498045193027532023461300 (0xBEDC74CE4E3D9D68A547961DEAF4F5B4)
    Полное имя : E: Фильмы (торент)BetasBetas.s01e01.HD720p.WEBRip.mkv
    Формат : Matroska
    Версия формата : Version 4/Version 2
    Размер файла : 905 Мбайт
    Продолжительность : 25 м.
    Режим общего битрейта : Переменный
    Общий поток : 4870 Кбит/сек
    Название фильма : BaibaKo.tv presents - Беты 1x01
    Дата кодирования : UTC 2014-02-21 00: 33: 50
    Программа кодирования : mkvmerge v6.6.0 (\'The Edge Of The In Between\') built on Dec 1 2013 17: 55: 00
    Библиотека кодирования : libebml v1.3.0 + libmatroska v1.4.1
    Видео
    Идентификатор : 1
    Формат : AVC
    Формат/Информация : Advanced Video Codec
    Профиль формата : High@L4.1
    Параметр CABAC формата : Да
    Параметр ReFrames формата : 5 кадров
    Идентификатор кодека : V_MPEG4/ISO/AVC
    Продолжительность : 25 м.
    Вид битрейта : Переменный
    Битрейт : 4096 Кбит/сек
    Максимальный битрейт : 62, 5 Мбит/сек
    Ширина : 1280 пикселей
    Высота : 720 пикселей
    Соотношение сторон : 16: 9
    Режим частоты кадров : Постоянный
    Частота кадров : 23, 976 кадра/сек
    Цветовое пространство : YUV
    Субдискретизация насыщенности : 4: 2: 0
    Битовая глубина : 8 бит
    Тип развёртки : Прогрессивная
    Бит/(Пиксели*Кадры) : 0.185
    Размер потока : 744 Мбайт (82%)
    Библиотека кодирования : x264 core 135 r2345 f0c1c53
    Настройки программы : cabac=1/ref=5/deblock=1: -1: -1/analyse=0x3: 0x113/me=umh/subme=8/psy=1/psy_rd=1.00: 0.15/mixed_ref=1/me_range=16/chroma_me=1/trellis=1/8x8dct=1/cqm=0/deadzone=21, 11/fast_pskip=1/chroma_qp_offset=-3/threads=12/lookahead_threads=2/sliced_threads=0/nr=0/decimate=1/interlaced=0/bluray_compat=0/constrained_intra=0/bframes=3/b_pyramid=0/b_adapt=2/b_bias=0/direct=3/weightb=1/open_gop=0/weightp=2/keyint=240/keyint_min=24/scenecut=40/intra_refresh=0/rc_lookahead=50/rc=2pass/mbtree=1/bitrate=4096/ratetol=1.0/qcomp=0.60/qpmin=0/qpmax=69/qpstep=4/cplxblur=20.0/qblur=0.5/vbv_maxrate=62500/vbv_bufsize=62500/nal_hrd=vbr/ip_ratio=1.40/aq=1: 1.00
    Default : Да
    Forced : Нет
    Аудио #1
    Идентификатор : 2
    Формат : AC-3
    Формат/Информация : Audio Coding 3
    Расширение режима : CM (complete main)
    Параметр Endianness формата : Big
    Идентификатор кодека : A_AC3
    Продолжительность : 25 м.
    Вид битрейта : Постоянный
    Битрейт : 384 Кбит/сек
    Каналы : 6 каналов
    Расположение каналов : Front: L C R, Side: L R, LFE
    Частота : 48, 0 КГц
    Битовая глубина : 16 бит
    Метод сжатия : С потерями
    Размер потока : 71, 3 Мбайт (8%)
    Заголовок : Rus BaibaKo.tv DD5.1
    Язык : Russian
    Default : Да
    Forced : Нет
    Аудио #2
    Идентификатор : 3
    Формат : AC-3
    Формат/Информация : Audio Coding 3
    Расширение режима : CM (complete main)
    Параметр Endianness формата : Big
    Идентификатор кодека : A_AC3
    Продолжительность : 25 м.
    Вид битрейта : Постоянный
    Битрейт : 384 Кбит/сек
    Каналы : 6 каналов
    Расположение каналов : Front: L C R, Side: L R, LFE
    Частота : 48, 0 КГц
    Битовая глубина : 16 бит
    Метод сжатия : С потерями
    Размер потока : 71, 3 Мбайт (8%)
    Заголовок : Eng DD5.1
    Язык : English
    Default : Нет
    Forced : Нет


    Скриншоты для ознакомления




    Онлайн видео Беты



    Беты/Betas (2013) WEB-DLRip [720p] (сезон 1, серия 1-4 из 11) BaibaKo (обновляемая)
    загрузка...
    Рейтинг →
     (голосов: 1, оценка 4/5, голосовать можно 1 раз )

    Другие торренты по теме:



      Комментарии (0):

      Информация

      Информация

        Посетители, находящиеся в группе Гости, не могут оставлять комментарии в данной новости.

        ↓ Меню




        ↓ Опрос

        Вы добавили сайт в закладки?
        Да
        Нет


        Top 10 за месяц (Фильмы)