.
Авторизация | Регистрация
Хочешь лучшие торренты? Добавь свой email!
Добавить

Торрент скачать бесплатно

» » ЧОП (2015) WEB-DLRip (серии 1- из 20) (обновляемая) скачать через торрент бесплатно




    ЧОП (2015) WEB-DLRip (серии 1- из 20) (обновляемая) скачать через торрент бесплатно

    Опубликовал: Админ | Дата: 7-04-2015, 04:00 | Просмотров: 111

    Производство: Гуд Стори Медиа, Россия
    Жанр: ситком, комедия
    Режиссер: Михаил Соловьев

    Актеры
    Сергей Стёпин, Олег Масленников-Войтов, Сергей Терещенко, Сэм Никель, Денис Бузин, Яна Кошкина, Дмитрий Белоцерковский, Али Алиев, Ислам Мамергов, Виталий Гумеров

    Описание

    Сериал повествует о жизни бизнес-центра Соловей, в котором трудится частное охранное предприятие Кедр. Лев Борисович, начальник ЧОП, является, как он сам считает, не только охранником материальных, но и морально-нравственных ценностей. В его подчинении находятся четыре охранника — Федя, Толя, Слава и новичок Андрей. Андрей мечтает стать рок-звездой, поэтому работой охранника не дорожит, но в первый же рабочий день встречает Снежану, работницу спа-салона, и потихоньку втягивается в будни бизнес-центра.
    Ограбление спермобанка, взрыв здания, разбитая Феррари — это не новый фильм с Джейсоном Стетхемом, а всего лишь история о паре дней из скромной жизни охранников бизнес-центра Соловей.

    Дата российской премьеры: 06.04.2015
    Продолжительность: ~ 00: 25: 00 серия
    Качество видео: WEB-DLRip
    Видеокодек: Xvid
    Битрейт видео: ~1500 kbps
    Размер кадра: 720х400 (16: 9)
    Аудиокодек: AC3 2.0
    Битрейт аудио: 192 kbps
    Код:
    Общее
    Полное имя : E:DOWNLOADSЧОП (2015) WEB-DLRipЧОП - 01 серия.avi
    Формат : AVI
    Формат/Информация : Audio Video Interleave
    Размер файла : 301 Мбайт
    Продолжительность : 25 м.
    Общий поток : 1662 Кбит/сек
    Программа кодирования : VirtualDubMod 1.5.10.3 |www.virtualdub-fr.org|| (build 2550/release)
    Библиотека кодирования : VirtualDubMod build 2550/release
    Видео
    Идентификатор : 0
    Формат : MPEG-4 Visual
    Профиль формата : Advanced Simple@L5
    Параметр BVOP формата : 1
    Параметр QPel формата : Нет
    Параметр GMC формата : Без точки перехода
    Параметр матрицы формата : Выборочная
    Идентификатор кодека : XVID
    Идентификатор кодека/Подсказка : XviD
    Продолжительность : 25 м.
    Битрейт : 1465 Кбит/сек
    Ширина : 720 пикселей
    Высота : 400 пикселей
    Соотношение сторон : 16:9
    Частота кадров : 25, 000 кадров/сек
    Цветовое пространство : YUV
    Субдискретизация насыщенности : 4:2:0
    Битовая глубина : 8 бит
    Тип развёртки : Прогрессивная
    Метод сжатия : С потерями
    Бит/(Пиксели*Кадры) : 0.203
    Размер потока : 265 Мбайт (88%)
    Библиотека кодирования : XviD 73
    Аудио
    Идентификатор : 1
    Формат : AC-3
    Формат/Информация : Audio Coding 3
    Расширение режима : CM (complete main)
    Параметр Endianness формата : Big
    Идентификатор кодека : 2000
    Продолжительность : 25 м.
    Вид битрейта : Постоянный
    Битрейт : 192 Кбит/сек
    Каналы : 2 канала
    Расположение каналов : Front: L R
    Частота : 48, 0 КГц
    Битовая глубина : 16 бит
    Метод сжатия : С потерями
    Размер потока : 34, 7 Мбайт (12%)
    Выравнивание : Соединение по промежуткам
    Продолжительность промежутка : 160 мс. (4, 01 видеокадра)
    Время предзагрузки промежутка : 640 мс.


    Скриншоты для ознакомления




    Онлайн видео ЧОП (2015) WEB



    ЧОП (2015) WEB-DLRip (серии 1- из 20) (обновляемая)
    загрузка...
    Рейтинг →
     (голосов: 1, оценка 3/5, голосовать можно 1 раз )

    Другие торренты по теме:

  • ЧОП (2015) WEB-DLRip [H.264 / 720p-LQ] (серии 1- из 20) (обновляемая) скачать через торрент бесплатно
  • ЧОП (2015) SATRip (серии 1-2 из 20) (обновляемая) скачать через торрент бесплатно
  • ЧОП (2015) WEB-DLRip [H.264] (серии 1-16 из 16) скачать через торрент бесплатно


    • Комментарии (0):

      Информация

      Информация

        Посетители, находящиеся в группе Гости, не могут оставлять комментарии в данной новости.

        ↓ Меню




        ↓ Опрос

        Вы добавили сайт в закладки?
        Да
        Нет


        Top 10 за месяц (Фильмы)