.
Авторизация | Регистрация
Хочешь лучшие торренты? Добавь свой email!
Добавить

Торрент скачать бесплатно

» » Чужестранка / Outlander (2014) HDTVRip [H.264] (сезон 1, серии 1-9 из 16) NewStudio (oбновляемая) скачать через торрент бесплатно




    Чужестранка / Outlander (2014) HDTVRip [H.264] (сезон 1, серии 1-9 из 16) NewStudio (oбновляемая) скачать через торрент бесплатно

    Опубликовал: Админ | Дата: 7-04-2015, 04:00 | Просмотров: 95

    Производство: США
    Жанр: фантастика, драма, мелодрама
    Режиссер: Анна Ферстер, Брайан Келли, Ричард Кларк, Джон Дал

    Актеры
    Каитриона Бэлфи, Сэм Юэн, Дункан Лакруа, Гари Льюис, Грэм Мак Тавиш, Тобиаш Мензес, Стивен Уолтерс, Аннет Бэдленд, Родерик Джилкисон и др.

    Описание

    Клэр, работавшая медсестой во время Второй мировой войны, случайно перемещается во времени и попадает в 1743 год. В этом мире, полном приключений, она знакомится с шотландским рыцарем Джейми. У героев завязывается страстный роман, несмотря на то, что сердце Клэр разрывается между двумя мужчинами — Джейми и ее мужем Фрэнком, который остался в другом времени.

    Дата мировой премьеры: 9 августа 2014
    Продолжительность: ~01: 00: 00 серия
    Качество видео: HDTVRip
    Перевод: Многоголосый закадровый, профессиональный -NewStudio
    Автор перевода: Григорий Сенин
    Видеокодек: MPEG-4/H.264 AVC
    Формат: MKV
    Битрейт видео: ~1000 kb/s
    Размер кадра: 720x404 (16: 9)
    Аудио Rus: (AC-3, 48, 0 kHz, 6 ch, 384 kb/s) - многоголосый закадровый
    Аудио Eng: (AC-3, 48, 0 kHz, 6 ch, 384 kb/s) - оригинал
    Общее
    Уникальный идентификатор : 246276621898546169920776600301208801024 (0xB94726EE2BA9CF71B9B460F9F7030F00)
    Полное имя : D: Чужестранка (сезон любимого сериала 1) Outlander (2014) HDTVRip x.264 - NewStudioOutlander.S01E01.HDTVRip.x264.Rus.Eng.DV.NewStudio.mkv
    Формат : Matroska
    Версия формата : Version 4/Version 2
    Размер файла : 817 Мбайт
    Продолжительность : 1 ч. 3 м.
    Общий поток : 1797 Кбит/сек
    Название фильма : Outlander.S01E01.HDTVRip.x264.DV.NewStudio/NNM-Club
    Дата кодирования : UTC 2015-04-06 18: 15: 47
    Программа кодирования : mkvmerge v7.8.0 (\'River Man\') 64bit built on Mar 27 2015 16: 31: 37
    Библиотека кодирования : libebml v1.3.1 + libmatroska v1.4.2
    DURATION : 01: 03: 31.680000000
    NUMBER_OF_FRAMES : 119115
    NUMBER_OF_BYTES : 182960640
    _STATISTICS_WRITING_APP : mkvmerge v7.8.0 (\'River Man\') 64bit built on Mar 27 2015 16: 31: 37
    _STATISTICS_WRITING_DATE_UTC : 2015-04-06 18: 15: 47
    _STATISTICS_TAGS : BPS DURATION NUMBER_OF_FRAMES NUMBER_OF_BYTES
    Видео
    Идентификатор : 1
    Формат : AVC
    Формат/Информация : Advanced Video Codec
    Профиль формата : High@L3.1
    Параметр CABAC формата : Да
    Параметр ReFrames формата : 5 кадров
    Идентификатор кодека : V_MPEG4/ISO/AVC
    Продолжительность : 1 ч. 3 м.
    Битрейт : 993 Кбит/сек
    Ширина : 720 пикселей
    Высота : 404 пикселя
    Соотношение сторон : 16: 9
    Режим частоты кадров : Постоянный
    Частота кадров : 23, 976 кадра/сек
    Цветовое пространство : YUV
    Субдискретизация насыщенности : 4: 2: 0
    Битовая глубина : 8 бит
    Тип развёртки : Прогрессивная
    Бит/(Пиксели*Кадры) : 0.142
    Размер потока : 451 Мбайт (55%)
    Библиотека кодирования : x264 core 142 r2453 ea0ca51
    Настройки программы : cabac=1/ref=5/deblock=1: 0: 0/analyse=0x3: 0x113/me=umh/subme=8/psy=1/psy_rd=1.00: 0.00/mixed_ref=1/me_range=16/chroma_me=1/trellis=1/8x8dct=1/cqm=0/deadzone=21, 11/fast_pskip=1/chroma_qp_offset=-2/threads=6/lookahead_threads=1/sliced_threads=0/nr=0/decimate=1/interlaced=0/bluray_compat=0/constrained_intra=0/bframes=3/b_pyramid=2/b_adapt=2/b_bias=0/direct=3/weightb=1/open_gop=0/weightp=2/keyint=250/keyint_min=23/scenecut=40/intra_refresh=0/rc_lookahead=50/rc=crf/mbtree=1/crf=19.0/qcomp=0.60/qpmin=0/qpmax=69/qpstep=4/ip_ratio=1.40/aq=1: 1.00
    Default : Да
    Forced : Нет
    Коэффициенты матрицы : BT.709
    colour_range : Limited
    Аудио #1
    Идентификатор : 2
    Формат : AC-3
    Формат/Информация : Audio Coding 3
    Расширение режима : CM (complete main)
    Параметр Endianness формата : Big
    Идентификатор кодека : A_AC3
    Продолжительность : 1 ч. 3 м.
    Вид битрейта : Постоянный
    Битрейт : 384 Кбит/сек
    Каналы : 6 каналов
    Расположение каналов : Front: L C R, Side: L R, LFE
    Частота : 48, 0 КГц
    Битовая глубина : 16 бит
    Метод сжатия : С потерями
    Размер потока : 174 Мбайт (21%)
    Заголовок : NewStudio
    Язык : Russian
    Default : Да
    Forced : Нет
    Аудио #2
    Идентификатор : 3
    Формат : AC-3
    Формат/Информация : Audio Coding 3
    Расширение режима : CM (complete main)
    Параметр Endianness формата : Big
    Идентификатор кодека : A_AC3
    Продолжительность : 1 ч. О таком странном сюжете не догадывалась даже Шакира. 3 м.
    Вид битрейта : Постоянный
    Битрейт : 384 Кбит/сек
    Каналы : 6 каналов
    Расположение каналов : Front: L C R, Side: L R, LFE
    Частота : 48, 0 КГц
    Битовая глубина : 16 бит
    Метод сжатия : С потерями
    Размер потока : 174 Мбайт (21%)
    Язык : English
    Default : Нет
    Forced : Нет


    Скриншоты для ознакомления




    Онлайн видео Чужестранка



    Чужестранка/Outlander (2014) HDTVRip [H.264] (сезон 1, серии 1-9 из 16) NewStudio (oбновляемая)
    загрузка...
    Рейтинг →
     (голосов: 1, оценка 5/5, голосовать можно 1 раз )

    Другие торренты по теме:

  • Чужестранка / Outlander (2014) WEB-DL [H.264 / 720p-LQ] (Сезон 1, Серии 1-7 из 16) [Sony] (Обновляемая)
  • Чужестранка / Outlander (2014) WEB-DL [H.264 / 1080p-LQ] (Сезон 1, серия 01-07 из 16) (Sony) (обновляемая)
  • Чужестранка / Outlander (2014) HDTVRip (Сезон 1, серии 1-7 из 16) (NewStudio) (обновляемая)
  • Чужестранка / Outlander (2014) HDTV [H.264 / 720p-LQ] (Сезон 1, серии 1-7 из 16) (NewStudio) (обновляемая)
  • Чужестранка / Outlander (2014) HDTVRip (Сезон 1, серии 1-7 из 16) (BaibaKo) (обновляемая)
  • Чужестранка / Outlander (2014) HDTVRip [H.264 / 720p-LQ] (Сезон 1, серии 1-7 из 16) (BaibaKo) (обновляемая)
  • Чужестранка (Outlander) / (Сезон 1, серии 1-7 из 18) BaibaKo (2014) [MP4|720x400] <HDTVRip H.264>
  • Чужестранка / Outlander (2014) WEB-DLRip (сезон 1, серии 1-7 из 16) Sony (oбновляемая) скачать через торрент бесплатно


    • Комментарии (0):

      Информация

      Информация

        Посетители, находящиеся в группе Гости, не могут оставлять комментарии в данной новости.

        ↓ Меню




        ↓ Опрос

        Вы добавили сайт в закладки?
        Да
        Нет


        Top 10 за месяц (Фильмы)