.
Авторизация | Регистрация
Хочешь лучшие торренты? Добавь свой email!
Добавить

Торрент скачать бесплатно

» » Месяц в деревне (1983) TVRip (Театр на Малой Бронной) скачать через торрент бесплатно




    Месяц в деревне (1983) TVRip (Театр на Малой Бронной) скачать через торрент бесплатно

    Опубликовал: Админ | Дата: 7-04-2015, 04:00 | Просмотров: 159

    Производство: СССР, ТО Экран
    Жанр: Телеспектакль, драма, экранизация
    Режиссер: Анатолий Эфрос

    Актеры
    Исаак Кастрель, Ольга Яковлева, Анна Каменкова, Иван Шабалтас, Леонид Броневой, Альбина Матвеева, Олег Вавилов, Мария Андрианова, Кирилл Глазунов


    Описание

    Месяц в деревне - пьеса И. С. Тургенева, написанная в 1850 году. Самое интересное в это истории, что об этом Медведев ничего не знал. Первая редакция была написана в 1848 году. Пьеса дважды меняла название (прежние - Студент, Две женщины). Опубликована в 1855 году.
    Появление нового лица в деревне - всегда событие. Когда летом 184… в богатом имении Ислаевых появился новый домашний учитель, уже сложившееся равновесие оказалось некоторым образом нарушенным или, во всяком случае, поколебленным. Перед началом спектакля - десятиминутное вступительное слово Марины Райкиной.
    Продолжительность: 01: 16: 01 + 01: 58: 57
    Видеокодек: DivX 5
    Битрейт видео: ~1954 Кбит/с
    Размер кадра: 720 x 544
    Качество видео: TVRip
    Аудиокодек: MP3 2.0
    Битрейт аудио: 128 Кбит/с
    Код:
    Общее
    Полное имя : Mesjac.v.derevne.1-2.serii.iz.2.1983.DviX.TVRip.aviMesjac.v.derevne.2.serija.iz.2.1983.DviX.TVRip.avi
    Формат : AVI
    Формат/Информация : Audio Video Interleave
    Размер файла : 1, 74 Гбайт
    Продолжительность : 1 ч. 58 м.
    Общий поток : 2092 Кбит/сек
    Программа кодирования : VirtualDubMod 1.5.10.1 Рус от Stvens Inc.™www.stvens.amillo.net(build 2366/release)
    Библиотека кодирования : VirtualDubMod build 2366/release
    Видео
    Идентификатор : 0
    Формат : MPEG-4 Visual
    Параметр BVOP формата : 2
    Параметр QPel формата : Нет
    Параметр GMC формата : Без точки перехода
    Параметр матрицы формата : Default (H.263)
    Идентификатор кодека : DX50
    Идентификатор кодека/Подсказка : DivX 5
    Продолжительность : 1 ч. 58 м.
    Битрейт : 1954 Кбит/сек
    Ширина : 720 пикселей
    Высота : 544 пикселя
    Соотношение сторон : 4:3
    Частота кадров : 25, 000 кадров/сек
    Цветовое пространство : YUV
    Субдискретизация насыщенности : 4:2:0
    Битовая глубина : 8 бит
    Тип развёртки : Прогрессивная
    Метод сжатия : С потерями
    Бит/(Пиксели*Кадры) : 0.200
    Размер потока : 1, 62 Гбайт (93%)
    Библиотека кодирования : DivX 1328m
    Аудио
    Идентификатор : 1
    Формат : MPEG Audio
    Версия формата : Version 1
    Профиль формата : Layer 3
    Режим : Joint stereo
    Расширение режима : MS Stereo
    Идентификатор кодека : 55
    Идентификатор кодека/Подсказка : MP3
    Продолжительность : 1 ч. 58 м.
    Вид битрейта : Постоянный
    Битрейт : 128 Кбит/сек
    Каналы : 2 канала
    Частота : 48, 0 КГц
    Метод сжатия : С потерями
    Размер потока : 109 Мбайт (6%)
    Выравнивание : Соединение по промежуткам
    Продолжительность промежутка : 40 мс. (1, 00 видеокадр)
    Время предзагрузки промежутка : 504 мс.

    Скриншоты для ознакомления


    Месяц в деревне на NNM-CLUB


    загрузка...
    Рейтинг →
     (голосов: 1, оценка 5/5, голосовать можно 1 раз )

    Другие торренты по теме:

  • Иван Тургенев - Две женщины (Месяц в деревне) (2004) TVRip (2 части) (Ленком) скачать через торрент бесплатно
  • Дмитрий Шевцов | SYSTEM 7 или заработок до 280000 рублей в месяц на Интернет-проектах (2015) [unpacked] скачать через торрент бесплатно
  • Папазян Тигран | 1000$ в месяц на AudioJungle (2015) PCRec


    • Комментарии (0):

      Информация

      Информация

        Посетители, находящиеся в группе Гости, не могут оставлять комментарии в данной новости.

        ↓ Меню




        ↓ Опрос

        Вы добавили сайт в закладки?
        Да
        Нет


        Top 10 за месяц (Фильмы)