.
Авторизация | Регистрация
Хочешь лучшие торренты? Добавь свой email!
Добавить

Торрент скачать бесплатно

» » Седьмой сын / Seventh Son (2014) WEB-DLRip [H.264 / 720p-LQ] скачать через торрент бесплатно




    Седьмой сын / Seventh Son (2014) WEB-DLRip [H.264 / 720p-LQ] скачать через торрент бесплатно

    Опубликовал: Админ | Дата: 7-04-2015, 04:00 | Просмотров: 108

    Производство: Великобритания, США, Канада, Китай/Legendary Pictures, Moving Picture Company
    Жанр: фэнтези, приключения
    Режиссер: Сергей Бодров

    Актеры
    Бен Барнс, Джефф Бриджес, Джулианна Мур, Алисия Викандер, Антье Трауэ, Оливия Уильямс, Джон ДеСантис, Кит Харингтон, Джимон Хонсу, Джерард Планкет, Джейсон Скотт Ли, Кэндис МакКлюр, Люк Родерик, Заф Пару, Тимоти Уэббер, Лайла Фицджералд, Марсель Жани, Либби Ослер, Примо Аллон

    Описание

    Рассказ в фильме пойдет про парня, который, так уж вышло, стал седьмым сыном седьмого сына. Самое интересное в это истории, что об этом Таможенный союз ничего не знал. А только такой человек может стать ведьмаком. Но этого недостаточно, чтобы именовать себя так — необходимо пройти массу тренировок, а также усердно учиться. Ведь главное оружие ведьмака — это его ум. Хоть в народе их не любят, но кто-то же обязан убивать нечисть, хранить землю от сил зла и делать всю грязную работу? Юный Том Уорд попробует стать тем самым учеником ведьмака.

    Дата мировой премьеры: 17 декабря 2014
    Дата российской премьеры: 1 января 2015, UPI
    Дата выхода DVD/Blu-ray релиза: 30 апреля 2015, Двадцатый Век Фокс СНГ
    Продолжительность: 01: 42: 01
    Качество видео: WEB-DLRip
    Перевод: дублированный (iTunes)
    Субтитры: отсутствуют
    Видео: AVC/H.264 | 3999 Кбит/с | 1280x532
    Аудио: AC3 5.1 | 384 Кбит/с | дублированный
    Код:

    Общее
    Уникальный идентификатор : 229802841980317655021565948584398095977 (0xACE26ADF26B9C7FDAA1201D741C30669)
    Полное имя : D:NNM-ClubСедьмой сын WEB-DL [720p].mkv
    Формат : Matroska
    Версия формата : Version 2
    Размер файла : 3, 19 Гбайт
    Продолжительность : 1 ч. 42 м.
    Общий поток : 4472 Кбит/сек
    Дата кодирования : UTC 2015-04-05 19:07:34
    Программа кодирования : mkvmerge v7.8.0 (\'River Man\') 64bit built on Mar 27 2015 16:31:37
    Библиотека кодирования : libebml v1.3.1 + libmatroska v1.4.2
    DURATION : 01:42:01.120000000
    NUMBER_OF_FRAMES : 191285
    NUMBER_OF_BYTES : 293813760
    _STATISTICS_WRITING_APP : mkvmerge v7.8.0 (\'River Man\') 64bit built on Mar 27 2015 16:31:37
    _STATISTICS_WRITING_DATE_UTC : 2015-04-05 19:07:34
    _STATISTICS_TAGS : BPS DURATION NUMBER_OF_FRAMES NUMBER_OF_BYTES
    Видео
    Идентификатор : 1
    Формат : AVC
    Формат/Информация : Advanced Video Codec
    Профиль формата :Main@L3.1
    Параметр CABAC формата : Нет
    Параметр ReFrames формата : 2 кадра
    Идентификатор кодека : V_MPEG4/ISO/AVC
    Продолжительность : 1 ч. 42 м.
    Битрейт : 3999 Кбит/сек
    Ширина : 1280 пикселей
    Высота : 532 пикселя
    Соотношение сторон : 2, 40:1
    Режим частоты кадров : Постоянный
    Частота кадров : 23, 976 кадра/сек
    Цветовое пространство : YUV
    Субдискретизация насыщенности : 4:2:0
    Битовая глубина : 8 бит
    Тип развёртки : Прогрессивная
    Бит/(Пиксели*Кадры) : 0.245
    Размер потока : 2, 85 Гбайт (89%)
    Язык : English
    Default : Да
    Forced : Нет
    Основные цвета : BT.709
    Характеристики трансфера : BT.709
    Коэффициенты матрицы : BT.709
    colour_range : Limited
    Аудио
    Идентификатор : 2
    Формат : AC-3
    Формат/Информация : Audio Coding 3
    Расширение режима : CM (complete main)
    Параметр Endianness формата : Big
    Идентификатор кодека : A_AC3
    Продолжительность : 1 ч. 42 м.
    Вид битрейта : Постоянный
    Битрейт : 384 Кбит/сек
    Каналы : 6 каналов
    Расположение каналов : Front: L C R, Side: L R, LFE
    Частота : 48, 0 КГц
    Битовая глубина : 16 бит
    Метод сжатия : С потерями
    Размер потока : 280 Мбайт (9%)
    Язык : Russian
    Default : Да
    Forced : Нет
    Меню
    00:00:00.000 : en:РіРава 1
    00:04:52.000 : en:РіРава 2
    00:10:30.000 : en:РіРава 3
    00:16:42.000 : en:РіРава 4
    00:22:42.000 : en:РіРава 5
    00:27:42.000 : en:РіРава 6
    00:30:19.000 : en:РіРава 7
    00:36:47.000 : en:РіРава 8
    00:42:39.000 : en:РіРава 9
    00:49:56.000 : en:РіРава 10
    00:54:46.000 : en:РіРава 11
    00:57:50.000 : en:РіРава 12
    01:02:55.000 : en:РіРава 13
    01:06:55.000 : en:РіРава 14
    01:11:31.000 : en:РіРава 15
    01:18:38.000 : en:РіРава 16
    01:22:12.000 : en:РіРава 17
    01:25:34.000 : en:РіРава 18
    01:30:16.000 : en:РіРава 19
    01:33:22.000 : en:РіРава 20

    Скриншоты для ознакомления



    загрузка...
    Рейтинг →
     (голосов: 1, оценка 3/5, голосовать можно 1 раз )

    Другие торренты по теме:

  • Седьмой сын / Seventh Son (2014) WEBRip [1080р] [Трейлер]
  • Седьмой сын / Seventh Son (2014) CamRip [Proper]
  • Седьмой сын / Seventh Son (2014) WEBHDRip [576p] iPad [Line] скачать через торрент бесплатно
  • Седьмой сын / Seventh Son (2014) WEBRip [1080p] ATV [Line] скачать через торрент бесплатно
  • Седьмой сын / Seventh Son (2014) WEBRip [H.264 / 720p-LQ] ATV [Line] скачать через торрент бесплатно
  • Седьмой сын / Seventh Son (2014) WEB-DLRip [576p] iPad скачать через торрент бесплатно
  • Седьмой сын / Seventh Son (2014) WEB-DL [1080p] ATV скачать через торрент бесплатно
  • Седьмой сын / Seventh Son (2014) WEB-DLRip скачать через торрент бесплатно


    • Комментарии (0):

      Информация

      Информация

        Посетители, находящиеся в группе Гости, не могут оставлять комментарии в данной новости.

        ↓ Меню




        ↓ Опрос

        Вы добавили сайт в закладки?
        Да
        Нет


        Top 10 за месяц (Фильмы)