.
Авторизация | Регистрация
Хочешь лучшие торренты? Добавь свой email!
Добавить

Торрент скачать бесплатно

» » Корабль (2015) WEB-DLRip [H.264 / 720p] (сезон 2, серии 1-8 из 26) (обновляемая) скачать через торрент бесплатно




    Корабль (2015) WEB-DLRip [H.264 / 720p] (сезон 2, серии 1-8 из 26) (обновляемая) скачать через торрент бесплатно

    Опубликовал: Админ | Дата: 6-04-2015, 04:00 | Просмотров: 146

    Производство: Yellow, Black and White, СТС, Россия
    Жанр: фантастика, приключения, мелодрама
    Режиссер: Олег Асадулин, Марк Горобец

    Актеры
    Дмитрий Певцов, Агриппина Стеклова, Владимир Виноградов, Роман Курцын, Матвей Зубалевич, Ингрид Олеринская, Сергей Друзьяк, Александр Пугачёв (II), Илья Иосифов, Дарья Храмцова, Ярослава Базаева, Ирина Антоненко, Юлия Агафонова, Илья Любимов, Мария Малиновская, Вячеслав Бондарчук, Анастасия Сорокина, Дмитрий Горевой, Руслан Садковский, Фёдор Сухов, Константин Косинский, Павел Крайнов, Захар Розин, Александр Барановский, Эвклид Кюрдзидис, Андрей Андреев, Ирис Иванова, Влад Канопка, Татьяна Космачёва, Ольга Ефремова, Ангелина Добророднова

    Описание

    Капитан Громов, который совсем недавно похоронил свою жену, вынужден взять в плавание двух дочерей. Заботиться о младшей дочери Валерии ему помогают проворная повариха Надежда и ученая Ксения, в которую Капитан безответно влюблен. Помощник поварихи - трогательный Орлуша найдет выход из самой сложной ситуации. А штурман Ракита доведет до белой горячки любого, кто посмеет пойти против устава. Белая горячка, сказал кто то из толпы, к чему не понятно. Но реальную опасность для всех представляет преподаватель по выживанию Герман, у которого свои планы на корабль.

    Дата российской премьеры: 23.03.2015
    Продолжительность: ~ 00: 48: 00 серия
    Качество видео: WEB-DLRip
    Видеокодек: AVC/H.264
    Битрейт видео: ~2500 Kbps
    Размер кадра: 1280x720 (16: 9)
    Аудиокодек: AC3
    Битрейт аудио: 2 ch, 256 Kbps
    Код:
    Общее
    Уникальный идентификатор : 200087360122205696099689979002744814489 (0x96876C8077F4599B82FA634ECCC13B99)
    Полное имя : E:DOWNLOADSКорабль (2 сезон любимого сериала) 2015 WEB-DLRip 720Корабль - 01 серия.mkv
    Формат : Matroska
    Версия формата : Version 2
    Размер файла : 927 Мбайт
    Продолжительность : 47 м.
    Общий поток : 2710 Кбит/сек
    Дата кодирования : UTC 2015-03-27 10:55:11
    Программа кодирования : mkvmerge v6.1.0 (\'Old Devil\') built on Mar 4 2013 09:10:42
    Библиотека кодирования : libebml v1.3.0 + libmatroska v1.4.0
    Видео
    Идентификатор : 1
    Формат : AVC
    Формат/Информация : Advanced Video Codec
    Профиль формата :High@L3.1
    Параметр CABAC формата : Да
    Параметр ReFrames формата : 4 кадра
    Идентификатор кодека : V_MPEG4/ISO/AVC
    Продолжительность : 47 м.
    Битрейт : 2500 Кбит/сек
    Ширина : 1280 пикселей
    Высота : 720 пикселей
    Соотношение сторон : 16:9
    Режим частоты кадров : Постоянный
    Частота кадров : 25, 000 кадров/сек
    Цветовое пространство : YUV
    Субдискретизация насыщенности : 4:2:0
    Битовая глубина : 8 бит
    Тип развёртки : Прогрессивная
    Бит/(Пиксели*Кадры) : 0.109
    Размер потока : 821 Мбайт (89%)
    Библиотека кодирования : x264 core 140
    Настройки программы : cabac=1/ref=3/deblock=1:0:0/analyse=0x3:0x113/me=hex/subme=7/psy=1/psy_rd=1.00:0.00/mixed_ref=1/me_range=16/chroma_me=1/trellis=1/8x8dct=1/cqm=0/deadzone=21, 11/fast_pskip=1/chroma_qp_offset=-2/threads=24/lookahead_threads=4/sliced_threads=0/nr=0/decimate=1/interlaced=0/bluray_compat=0/constrained_intra=0/bframes=3/b_pyramid=2/b_adapt=1/b_bias=0/direct=1/weightb=1/open_gop=0/weightp=2/keyint=250/keyint_min=25/scenecut=40/intra_refresh=0/rc_lookahead=40/rc=abr/mbtree=1/bitrate=2500/ratetol=1.0/qcomp=0.60/qpmin=0/qpmax=69/qpstep=4/vbv_maxrate=5000/vbv_bufsize=10000/nal_hrd=none/filler=0/ip_ratio=1.40/aq=1:1.00
    Язык : English
    Default : Да
    Forced : Нет
    Аудио
    Идентификатор : 2
    Формат : AC-3
    Формат/Информация : Audio Coding 3
    Расширение режима : CM (complete main)
    Параметр Endianness формата : Big
    Идентификатор кодека : A_AC3
    Продолжительность : 47 м.
    Вид битрейта : Постоянный
    Битрейт : 256 Кбит/сек
    Каналы : 2 канала
    Расположение каналов : Front: L R
    Частота : 48, 0 КГц
    Битовая глубина : 16 бит
    Метод сжатия : С потерями
    Размер потока : 87, 6 Мбайт (9%)
    Default : Да
    Forced : Нет


    Скриншоты для ознакомления




    Онлайн видео Корабль (2015) WEB-DLRip [H.264



    Корабль (2015) WEB-DLRip [H.264/720p] (сезон 2, серии 1-8 из 26) (обновляемая)
    загрузка...
    Рейтинг →
     (голосов: 1, оценка 3/5, голосовать можно 1 раз )

    Другие торренты по теме:

  • Корабль (2015) SATRip (сезон 2, серии 1 из 26) (обновляемая) скачать через торрент бесплатно
  • Корабль (2015) WEB-DLRip (сезон 2, серии 1-4 из 26) (обновляемая) скачать через торрент бесплатно
  • Большой скачок. Экраноплан. Летучий корабль (2015) SATRip скачать через торрент бесплатно
  • Корабль (2015) WEB-DLRip [H.264 / 1080p-LQ] (сезон 2, серии 1-26 из 26) скачать через торрент бесплатно
  • Полигон. Большой десантный корабль (2015) SATRip
  • Полигон. Большой десантный корабль (2015) HDTVRip [720p-LQ]
  • Последний корабль / The Last Ship (2015) WEB-DLRip (сезон 2, серии 1 из 13) LostFilm (обновляемая) скачать через торрент бесплатно
  • Последний корабль / The Last Ship (2015) WEB-DL [H.264] (Сезон 2, серия 1 из 13) LostFilm [MP4|1280x720] скачать через торрент бесплатно


    • Комментарии (0):

      Информация

      Информация

        Посетители, находящиеся в группе Гости, не могут оставлять комментарии в данной новости.

        ↓ Меню




        ↓ Опрос

        Вы добавили сайт в закладки?
        Да
        Нет


        Top 10 за месяц (Фильмы)