.
Авторизация | Регистрация
Хочешь лучшие торренты? Добавь свой email!
Добавить

Торрент скачать бесплатно

» » Поехавший убийца / Crazy Murder (2014) DVDRip [VO] скачать через торрент бесплатно




    Поехавший убийца / Crazy Murder (2014) DVDRip [VO] скачать через торрент бесплатно

    Опубликовал: Админ | Дата: 4-04-2015, 04:00 | Просмотров: 242

    Производство: США, Facepuncher Films
    Жанр: Ужасы
    Режиссер: Дюк Гербер, Калиб Пеннибахер

    Актеры
    Кевин Кенни, Джеймс Куолл, Марк Хант

    Описание фильма

    На улицах Нью-Йорка живет около 50 тысяч бездомных. Жители мегаполиса не обращают на них никакого внимания. Но когда у одного из бомжей срывает крышу, остальным людям приходится несладко. У бездомного Базилио помутнился разум. Он начинает кровавое шествие по миллионному городу. Базилио жестоко расправляется со всеми, кто встречается на его пути. Среди всего этого кровавого Хаоса бомж-психопат однажды встречает кассиршу, которая запала в его жестокое сердце. Самое интересное в это истории, что об этом Ющенко ничего не знал. Но сможет ли это чувство остановить разъяренного маньяка?

    Дата мировой премьеры: 29 октября 2014
    Продолжительность: 01: 37: 30
    Качество видео: DVDRip
    Перевод: Одноголосый закадровый, любительский
    Озвучка/Автор перевода: den904
    Видеокодек: Xvid
    Битрейт видео: ~1744 Kbps
    Размер кадра: 720x400
    Аудиокодек: AC3 2.0
    Битрейт аудио: 256 Kbps
    Сэмпл: Скачать
    Код:

    General
    Complete name : D:DownloadsCrazy Murder (2014) DVDRip.avi
    Format : AVI
    Format/Info : Audio Video Interleave
    Format profile : OpenDML
    Format settings : rec
    File size : 1.37 GiB
    Duration : 1h 37mn
    Overall bit rate : 2 006 Kbps
    Writing application : AVI-Mux GUI 1.17.8.3, Feb 16 201019:42:50
    Video
    ID : 0
    Format : MPEG-4 Visual
    Format profile : Advanced Simple@L5
    Format settings, BVOP : Yes
    Format settings, QPel : No
    Format settings, GMC : No warppoints
    Format settings, Matrix : Default (H.263)
    Codec ID : XVID
    Codec ID/Hint : XviD
    Duration : 1h 37mn
    Bit rate : 1 744 Kbps
    Width : 720 pixels
    Height : 400 pixels
    Display aspect ratio : 16:9
    Frame rate : 23.976 fps
    Color space : YUV
    Chroma subsampling : 4:2:0
    Bit depth : 8 bits
    Scan type : Progressive
    Compression mode : Lossy
    Bits/(Pixel*Frame) : 0.253
    Stream size : 1.19 GiB (87%)
    Writing library : XviD 62
    Audio
    ID : 1
    Format : AC-3
    Format/Info : Audio Coding 3
    Mode extension : CM (complete main)
    Format settings, Endianness : Big
    Codec ID : 2000
    Duration : 1h 37mn
    Bit rate mode : Constant
    Bit rate : 256 Kbps
    Channel(s) : 2 channels
    Channel positions : Front: L R
    Sampling rate : 48.0 KHz
    Bit depth : 16 bits
    Compression mode : Lossy
    Stream size : 179 MiB (13%)
    Alignment : Aligned on interleaves
    Interleave, duration : 64 ms (1.53 video frames)
    Interleave, preload duration : 192 ms
    Title : rus_178


    Скриншоты для ознакомления




    Онлайн видео Поехавший убийца



    Поехавший убийца/Crazy Murder (2014) DVDRip [VO]
    загрузка...
    Рейтинг →
     (голосов: 1, оценка 3/5, голосовать можно 1 раз )

    Другие торренты по теме:



      Комментарии (0):

      Информация

      Информация

        Посетители, находящиеся в группе Гости, не могут оставлять комментарии в данной новости.

        ↓ Меню




        ↓ Опрос

        Вы добавили сайт в закладки?
        Да
        Нет


        Top 10 за месяц (Фильмы)