.
Авторизация | Регистрация
Хочешь лучшие торренты? Добавь свой email!
Добавить

Торрент скачать бесплатно

» » Пропавший без вести / The Missing (2014) BDRip (сезон 1, серии 1-4 из 8) Amedia (обновляемая) скачать через торрент бесплатно




    Пропавший без вести / The Missing (2014) BDRip (сезон 1, серии 1-4 из 8) Amedia (обновляемая) скачать через торрент бесплатно

    Опубликовал: Админ | Дата: 1-04-2015, 13:00 | Просмотров: 104

    Производство: Великобритания, США
    Жанр: драма, криминал, детектив
    Режиссер: Том Шенклэнд

    Актеры
    Джеймс Несбитт, Фрэнсис О’Коннор, Чеки Карио, Джейсон Флеминг, Эмили Декьенн, Саид Тагмауи, Титус Де Вогдт, Эрик Годон, Аршер Али, Анастасия Хилл и др.

    Описание фильма

    Во время чемпионата мира по футболу 2006 года британская семья теряет во Франции своего маленького сына посреди футбольной вакханалии, которая творилась на улицах по случаю финала. Это разрушает их брак, и вскоре жена находит себе нового мужчину. Спустя восемь лет отец пропавшего мальчика нанимает французского детектива, чтобы возобновить поиски, — появились доказательства того, что ребенок все еще жив.

    Дата российской премьеры: 27 марта 2015
    Продолжительность: ~00: 58: 00 серия
    Качество видео: BDRip
    Перевод: Многоголосый закадровый, профессиональный -Amedia
    Вид субтитров: отдельным файлом
    Язык субтитров: русский, английский
    Синхронизация звука и субтитров: qqss44
    Рип: DriverV
    Видеокодек: XviD
    Формат: AVI
    Битрейт видео: ~1500 kb/s
    Размер кадра: 720х400 (16: 9)
    Аудио Rus: (MPEG Layer 3, 48, 0 kHz, 2 ch, 128 kb/s) - многоголосый закадровый
    Аудио Eng: (MPEG Layer 3, 48, 0 kHz, 2 ch, 128 kb/s) - оригинал
    Общее
    Полное имя : D: Пропавший без вести (сезон любимого сериала 1) The Missing (2014) BDRip - AmediaThe.Missing.S01E01.BDRip.XviD.DV.Amedia.avi
    Формат : AVI
    Формат/Информация : Audio Video Interleave
    Размер файла : 747 Мбайт
    Продолжительность : 58 м.
    Общий поток : 1772 Кбит/сек
    Программа кодирования : VirtualDubModRus 1.5.10.2 (build 2542/release)
    Библиотека кодирования : VirtualDubMod build 2542/release
    Видео
    Идентификатор : 0
    Формат : MPEG-4 Visual
    Профиль формата : Advanced Simple@L5
    Параметр BVOP формата : 2
    Параметр QPel формата : Нет
    Параметр GMC формата : Без точки перехода
    Параметр матрицы формата : Default (H.263)
    Идентификатор кодека : XVID
    Идентификатор кодека/Подсказка : XviD
    Продолжительность : 58 м.
    Битрейт : 1501 Кбит/сек
    Ширина : 720 пикселей
    Высота : 400 пикселей
    Соотношение сторон : 16: 9
    Частота кадров : 25, 000 кадров/сек
    Цветовое пространство : YUV
    Субдискретизация насыщенности : 4: 2: 0
    Битовая глубина : 8 бит
    Тип развёртки : Прогрессивная
    Метод сжатия : С потерями
    Бит/(Пиксели*Кадры) : 0.209
    Размер потока : 633 Мбайт (85%)
    Библиотека кодирования : XviD 64
    Аудио #1
    Идентификатор : 1
    Формат : MPEG Audio
    Версия формата : Version 1
    Профиль формата : Layer 3
    Режим : Joint stereo
    Расширение режима : MS Stereo
    Идентификатор кодека : 55
    Идентификатор кодека/Подсказка : MP3
    Продолжительность : 58 м.
    Вид битрейта : Постоянный
    Битрейт : 128 Кбит/сек
    Каналы : 2 канала
    Частота : 48, 0 КГц
    Метод сжатия : С потерями
    Размер потока : 54, 0 Мбайт (7%)
    Выравнивание : Разделение по промежуткам
    Продолжительность промежутка : 40 мс. (1, 00 видеокадр)
    Время предзагрузки промежутка : 500 мс.
    Аудио #2
    Идентификатор : 2
    Формат : MPEG Audio
    Версия формата : Version 1
    Профиль формата : Layer 3
    Режим : Joint stereo
    Расширение режима : MS Stereo
    Идентификатор кодека : 55
    Идентификатор кодека/Подсказка : MP3
    Продолжительность : 58 м.
    Вид битрейта : Постоянный
    Битрейт : 128 Кбит/сек
    Каналы : 2 канала
    Частота : 48, 0 КГц
    Метод сжатия : С потерями
    Размер потока : 54, 0 Мбайт (7%)
    Выравнивание : Разделение по промежуткам
    Продолжительность промежутка : 40 мс. (1, 00 видеокадр)
    Время предзагрузки промежутка : 500 мс.


    Скриншоты для ознакомления




    Онлайн видео Пропавший без вести



    Пропавший без вести/The Missing (2014) BDRip (сезон 1, серии 1-4 из 8) Amedia (обновляемая)
    загрузка...
    Рейтинг →
     (голосов: 1, оценка 4/5, голосовать можно 1 раз )

    Другие торренты по теме:

  • Пропавший без вести / The Missing (2014) HDTVRip [H.264 / 720p-LQ] (Сезон 1, серии 1-4 из 8) (Victory-Films) (обновляемая) скачать через торрент бесплатно
  • Пропавший без вести / The Missing (2014) BDRip [720p] (Сезон 1, серии 1-3 из 8) (Amedia) (обновляемая) скачать через торрент бесплатно
  • Пропавший без вести (2013) HDTVRip (серии 1-4 из 4)
  • Пропавший без вести / The Missing (2016) HDTVRip [H.264 / 720p-LQ] (сезон 2, серии 1-8 из 8) (Studio Victory-Films)
  • Пропавший без вести. Второе дыхание (2017) HDTV [H.264 / 1080i-LQ] (сезон 2, серии 1-2 из 12) (обновляемая)
  • Пропавший без вести. Второе дыхание (2017) SATRip [H.264] (сезон 2, серии 1-12 из 12)
  • Пропавший без вести. Второе дыхание (2017) HDTVRip (сезон 2, серии 1-12 из 12)
  • Пропавший без вести / Missing (1981) DVDRip


    • Комментарии (0):

      Информация

      Информация

        Посетители, находящиеся в группе Гости, не могут оставлять комментарии в данной новости.

        ↓ Меню




        ↓ Опрос

        Вы добавили сайт в закладки?
        Да
        Нет


        Top 10 за месяц (Фильмы)