.
Авторизация | Регистрация
Хочешь лучшие торренты? Добавь свой email!
Добавить

Торрент скачать бесплатно

» » Фарца (2015) HDTV [H.264 / 1080i-LQ] (1 сезон, серии 1-2 из 8) (обновляемая) скачать через торрент бесплатно




    Фарца (2015) HDTV [H.264 / 1080i-LQ] (1 сезон, серии 1-2 из 8) (обновляемая) скачать через торрент бесплатно

    Опубликовал: Админ | Дата: 1-04-2015, 13:00 | Просмотров: 128

    Производство: Россия/Продюсерский центр Среда
    Жанр: драма
    Режиссер: Егор Баранов

    Актеры
    Александр Петров, Филипп Горенштейн, Максим Емельянов, Алексей Весёлкин, Зоя Бербер, Таисия Вилкова, Евгений Стычкин, Иева Андреевайте, Алексей Серебряков, Александр Яценко и др.

    Описание фильма

    События происходят с 1961 года по 1991 год. В центре истории — дружба четырех парней. В 1 сезон любимого сериалае им 20 лет, они дружат с детства и ради дружбы готовы на все. У всех свои мечты, но обстоятельства сложатся таким образом, что они будут вынуждены окунуться во все виды подпольной экономики начала 60х. И, что самое ужасное, — они успешны в этом деле, у них все получается. И чем лучше у них получается фарцовка, тем дальше герои от воплощения своих настоящих мечтаний.

    Дата российской премьеры: 30 марта 2015
    Качество видео: HDTV (1080i)
    Продолжительность: ~00: 50: 00 серия
    Видеокодек: MPEG-4 AVC
    Битрейт видео: ~3698 kbps
    Размер кадра: 1920x1080
    Аудио 1 Rus: MP2, 48000Hz, 2ch, 128kbps
    Аудио 2 Rus: AC3, 48000Hz, 6ch, 384kbps
    Код:
    Общее
    Идентификатор : 1 (0x1)
    Полное имя : D:Farca.HDTV.1080iFarca.01.HDTV.1080i.ts
    Формат : MPEG-TS
    Размер файла : 1, 61 Гбайт
    Продолжительность : 51 м.
    Режим общего битрейта : Переменный
    Общий поток : 4434 Кбит/сек
    Видео
    Идентификатор : 257 (0x101)
    Идентификатор меню : 1 (0x1)
    Формат : AVC
    Формат/Информация : Advanced Video Codec
    Профиль формата :High@L4.0
    Параметр CABAC формата : Да
    Параметр ReFrames формата : 4 кадра
    Параметр GOP формата : M=4, N=32
    Идентификатор кодека : 27
    Продолжительность : 51 м.
    Битрейт : 3698 Кбит/сек
    Ширина : 1920 пикселей
    Высота : 1080 пикселей
    Соотношение сторон : 16:9
    Частота кадров : 25, 000 кадров/сек
    Цветовое пространство : YUV
    Субдискретизация насыщенности : 4:2:0
    Битовая глубина : 8 бит
    Тип развёртки : Чересстрочная
    Порядок развёртки : Верхнее поле первое
    Бит/(Пиксели*Кадры) : 0.071
    Размер потока : 1, 34 Гбайт (83%)
    Основные цвета : BT.709
    Характеристики трансфера : BT.709
    Коэффициенты матрицы : BT.709
    Аудио #1
    Идентификатор : 357 (0x165)
    Идентификатор меню : 1 (0x1)
    Формат : MPEG Audio
    Версия формата : Version 1
    Профиль формата : Layer 2
    Идентификатор кодека : 3
    Продолжительность : 51 м.
    Вид битрейта : Постоянный
    Битрейт : 128 Кбит/сек
    Каналы : 2 канала
    Частота : 48, 0 КГц
    Метод сжатия : С потерями
    Размер потока : 47, 5 Мбайт (3%)
    Язык : Russian
    Аудио #2
    Идентификатор : 657 (0x291)
    Идентификатор меню : 1 (0x1)
    Формат : AC-3
    Формат/Информация : Audio Coding 3
    Расширение режима : CM (complete main)
    Параметр Endianness формата : Big
    Идентификатор кодека : 6
    Продолжительность : 51 м.
    Вид битрейта : Постоянный
    Битрейт : 384 Кбит/сек
    Каналы : 6 каналов
    Расположение каналов : Front: L C R, Side: L R, LFE
    Частота : 48, 0 КГц
    Битовая глубина : 16 бит
    Метод сжатия : С потерями
    Размер потока : 142 Мбайт (9%)
    Язык : English


    Скриншоты для ознакомления




    Онлайн видео Фарца (2015) HDTV [H.264



    Фарца (2015) HDTV [H.264/1080i-LQ] (1 сезон, серии 1-2 из 8) (обновляемая)
    загрузка...
    Рейтинг →
     (голосов: 1, оценка 3/5, голосовать можно 1 раз )

    Другие торренты по теме:

  • Фарца (2015) DVB [H.264] (серии 1-2 из 8) (обновляемая) скачать через торрент бесплатно
  • Фарца (2015) WEBRip (сезон 1, серии 1-4 из 8) (обновляемая) скачать через торрент бесплатно
  • Фарца (2015) WEBRip [H.264] (серии 1-4 из 8) [mp4|1680x1048] (обновляемая) скачать через торрент бесплатно
  • Фарца (2015) HDTVRip [H.264 / 720p] (серии 1-2 из 8) (обновляемая) скачать через торрент бесплатно
  • Фарца (2015) HDTVRip (серии 1-4 из 8) (обновляемая) скачать через торрент бесплатно


    • Комментарии (0):

      Информация

      Информация

        Посетители, находящиеся в группе Гости, не могут оставлять комментарии в данной новости.

        ↓ Меню




        ↓ Опрос

        Вы добавили сайт в закладки?
        Да
        Нет


        Top 10 за месяц (Фильмы)