.
Авторизация | Регистрация
Хочешь лучшие торренты? Добавь свой email!
Добавить

Торрент скачать бесплатно

» » Фарца (2015) WEBRip (сезон 1, серии 1-4 из 8) (обновляемая) скачать через торрент бесплатно




    Фарца (2015) WEBRip (сезон 1, серии 1-4 из 8) (обновляемая) скачать через торрент бесплатно

    Опубликовал: Админ | Дата: 1-04-2015, 13:00 | Просмотров: 124

    Производство: Россия/Продюсерский центр Среда
    Жанр: драма
    Режиссер: Егор Баранов

    Актеры
    Александр Петров, Филипп Горенштейн, Максим Емельянов, Алексей Весёлкин, Зоя Бербер, Таисия Вилкова, Евгений Стычкин, Иева Андреевайте, Алексей Серебряков, Александр Яценко и др.

    Описание фильма

    События происходят с 1961 года по 1991 год. В центре истории — дружба четырех парней. В 1 сезон любимого сериалае им 20 лет, они дружат с детства и ради дружбы готовы на все. У всех свои мечты, но обстоятельства сложатся таким образом, что они будут вынуждены окунуться во все виды подпольной экономики начала 60х. И, что самое ужасное, — они успешны в этом деле, у них все получается. И чем лучше у них получается фарцовка, тем дальше герои от воплощения своих настоящих мечтаний.

    Дата российской премьеры: 30 марта 2015
    Качество видео: WEBRip
    Продолжительность: ~00: 50: 00 серия
    Видеокодек: XviD
    Формат: AVI
    Битрейт видео: ~1800 kbps avg
    Размер кадра: 720х416
    Аудиокодек: MP3, 2 ch
    Битрейт аудио: 128 kbps
    Код:
    Общее
    Полное имя : D:Farca.WEBRipFarca.O1.WEBRip.avi
    Формат : AVI
    Формат/Информация : Audio Video Interleave
    Размер файла : 721 Мбайт
    Продолжительность : 51 м.
    Общий поток : 1939 Кбит/сек
    Программа кодирования : VirtualDubMod 1.5.10.3 |www.virtualdub-fr.org|| (build 2550/release)
    Библиотека кодирования : VirtualDubMod build 2550/release
    Видео
    Идентификатор : 0
    Формат : MPEG-4 Visual
    Профиль формата : Advanced Simple@L5
    Параметр BVOP формата : 2
    Параметр QPel формата : Нет
    Параметр GMC формата : Без точки перехода
    Параметр матрицы формата : Default (H.263)
    Идентификатор кодека : XVID
    Идентификатор кодека/Подсказка : XviD
    Продолжительность : 51 м.
    Битрейт : 1799 Кбит/сек
    Ширина : 720 пикселей
    Высота : 416 пикселей
    Соотношение сторон : 1, 731
    Частота кадров : 30, 000 кадров/сек
    Цветовое пространство : YUV
    Субдискретизация насыщенности : 4:2:0
    Битовая глубина : 8 бит
    Тип развёртки : Прогрессивная
    Метод сжатия : С потерями
    Бит/(Пиксели*Кадры) : 0.200
    Размер потока : 669 Мбайт (93%)
    Библиотека кодирования : XviD 1.2.1 (UTC 2008-12-04)
    Аудио
    Идентификатор : 1
    Формат : MPEG Audio
    Версия формата : Version 1
    Профиль формата : Layer 3
    Режим : Joint stereo
    Расширение режима : MS Stereo
    Идентификатор кодека : 55
    Идентификатор кодека/Подсказка : MP3
    Продолжительность : 51 м.
    Вид битрейта : Постоянный
    Битрейт : 128 Кбит/сек
    Каналы : 2 канала
    Частота : 44, 1 КГц
    Метод сжатия : С потерями
    Размер потока : 47, 6 Мбайт (7%)
    Выравнивание : Разделение по промежуткам
    Продолжительность промежутка : 33 мс. (1, 00 видеокадр)
    Время предзагрузки промежутка : 500 мс.
    Библиотека кодирования : LAME3.99r
    Настройки программы : -m j -V 4 -q 9 -lowpass 17 -b 128


    Скриншоты для ознакомления




    Онлайн видео Фарца (2015) WEBRip (сезон любимого сериала 1, серии 1



    Фарца (2015) WEBRip (сезон 1, серии 1-4 из 8) (обновляемая)
    загрузка...
    Рейтинг →
     (голосов: 1, оценка 3/5, голосовать можно 1 раз )

    Другие торренты по теме:

  • Фарца (2015) DVB [H.264] (серии 1-2 из 8) (обновляемая) скачать через торрент бесплатно
  • Фарца (2015) HDTV [H.264 / 1080i-LQ] (1 сезон, серии 1-2 из 8) (обновляемая) скачать через торрент бесплатно
  • Фарца (2015) WEBRip [H.264] (серии 1-4 из 8) [mp4|1680x1048] (обновляемая) скачать через торрент бесплатно
  • Фарца (2015) HDTVRip [H.264 / 720p] (серии 1-2 из 8) (обновляемая) скачать через торрент бесплатно
  • Фарца (2015) HDTVRip (серии 1-4 из 8) (обновляемая) скачать через торрент бесплатно


    • Комментарии (0):

      Информация

      Информация

        Посетители, находящиеся в группе Гости, не могут оставлять комментарии в данной новости.

        ↓ Меню




        ↓ Опрос

        Вы добавили сайт в закладки?
        Да
        Нет


        Top 10 за месяц (Фильмы)