.
Авторизация | Регистрация
Хочешь лучшие торренты? Добавь свой email!
Добавить

Торрент скачать бесплатно

» » Белые ночи (1959) DVDRip [H.264] скачать через торрент бесплатно




    Белые ночи (1959) DVDRip [H.264] скачать через торрент бесплатно

    Опубликовал: Админ | Дата: 29-03-2015, 04:04 | Просмотров: 200

    Производство: СССР (Мосфильм)
    Жанр: Драма, Мелодрама
    Режиссер: Иван Пырьев

    Актеры
    Людмила Марченко, Олег Стриженов, Анатолий Федоринов, Вера Попова, Светлана Харитонова, Евгений Моргунов

    Описание фильма

    Белые ночи — романтическая драма 1959 года, снятая режиссёром Иваном Пырьевым по одноимённой повести Ф. М. Достоевского.
    Петербург 40-х годов XIX столетия. Лето, белые ночи. На берегу Невы Мечтатель знакомится с Настенькой. Пять ночей, гуляя по городу, молодые люди рассказывают о себе. Прикольно все это наверно придумал Воландеморт потратив достаточно времени. Разуверившаяся в чувствах человека, которого любит, Настенька обещает влюбленному в нее Мечтателю выйти за него замуж, но…

    Продолжительность: 01: 30: 23
    Качество видео: DVDRip
    Видеокодек: AVC/H.264
    Битрейт видео: ~1845 kbps
    Размер кадра: 704x528
    Аудиокодек: AC3 2.0
    Битрейт аудио: 192 Kbps
    Код:

    Общее
    Уникальный идентификатор : 188121861260742893784845234025973394292 (0x8D86F3DC4194FE758BC6CC380A97AB74)
    Полное имя : H:Наши фильмыСоветские фильмыСтриженов Олег АлександровичБелые ночи (1959)Белые ночи (1959).mkv
    Формат : Matroska
    Версия формата : Version 2
    Размер файла : 1, 31 Гбайт
    Продолжительность : 1 ч. 30 м.
    Общий поток : 2079 Кбит/сек
    Название фильма : Release for Topmost
    Дата кодирования : UTC 2015-03-28 11:10:37
    Программа кодирования : mkvmerge v6.2.0 (\'Promised Land\') built on Apr 28 2013 12:22:01
    Библиотека кодирования : libebml v1.3.0 + libmatroska v1.4.0
    Видео
    Идентификатор : 1
    Формат : AVC
    Формат/Информация : Advanced Video Codec
    Профиль формата :High@L3.0
    Параметр CABAC формата : Да
    Параметр ReFrames формата : 1 кадр
    Идентификатор кодека : V_MPEG4/ISO/AVC
    Продолжительность : 1 ч. 30 м.
    Битрейт : 1845 Кбит/сек
    Ширина : 704 пикселя
    Высота : 528 пикселей
    Соотношение сторон : 4:3
    Режим частоты кадров : Постоянный
    Частота кадров : 25, 000 кадров/сек
    Цветовое пространство : YUV
    Субдискретизация насыщенности : 4:2:0
    Битовая глубина : 8 бит
    Тип развёртки : Прогрессивная
    Бит/(Пиксели*Кадры) : 0.199
    Размер потока : 1, 17 Гбайт (89%)
    Заголовок : Белые ночи (1959)
    Библиотека кодирования : x264 core 130 r2274bm c832fe9
    Настройки программы : cabac=1/ref=1/deblock=1:-1:-1/analyse=0x3:0x113/me=hex/subme=2/psy=1/psy_rd=1.00:0.15/mixed_ref=0/me_range=16/chroma_me=1/trellis=0/8x8dct=1/cqm=0/deadzone=21, 11/fast_pskip=1/chroma_qp_offset=0/threads=2/lookahead_threads=2/sliced_threads=1/slices=2/nr=0/decimate=1/interlaced=0/bluray_compat=0/constrained_intra=0/bframes=0/weightp=1/keyint=250/keyint_min=25/scenecut=40/intra_refresh=0/rc=crf/mbtree=0/crf=18.8/qcomp=0.60/qpmin=0/qpmax=69/qpstep=4/ip_ratio=1.40/aq=1:1.00
    Язык : Russian
    Default : Да
    Forced : Нет
    Аудио
    Идентификатор : 2
    Формат : AC-3
    Формат/Информация : Audio Coding 3
    Расширение режима : CM (complete main)
    Параметр Endianness формата : Big
    Идентификатор кодека : A_AC3
    Продолжительность : 1 ч. 30 м.
    Вид битрейта : Постоянный
    Битрейт : 192 Кбит/сек
    Каналы : 2 канала
    Расположение каналов : Front: L R
    Частота : 48, 0 КГц
    Битовая глубина : 16 бит
    Метод сжатия : С потерями
    Размер потока : 124 Мбайт (9%)
    Заголовок : AC3, 2 ch, 192 kbps
    Язык : Russian
    Default : Да
    Forced : Нет
    Очаровательный фильм. Герои Стриженова и Марченко - молоды, трогательны, наивны и забавны. Милые, давно ушедшие актеры. Самое интересное в это истории, что об этом Воландеморт ничего не знал. Классика.


    Скриншоты для ознакомления




    Белые ночи (1959) DVDRip [H.264]
    загрузка...
    Рейтинг →
     (голосов: 1, оценка 3/5, голосовать можно 1 раз )

    Другие торренты по теме:

  • Белые ночи почтальона Алексея Тряпицына (2014) HDTVRip
  • Белые ночи почтальона Алексея Тряпицына (2014) HDTV [1080i] скачать через торрент бесплатно
  • Белые ночи почтальона Алексея Тряпицына (2014) HDTVRip [H.264 / 720p-LQ] скачать через торрент бесплатно
  • Белые ночи почтальона Алексея Тряпицына (2014) HDTVRip
  • Белые ночи почтальона Алексея Тряпицына (2014) SATRip скачать через торрент бесплатно
  • Фёдор Михайлович Достоевский | Белые ночи [сборник] (1987) [PDF, DJVU] скачать через торрент бесплатно
  • Абдурахман Абсалямов | Белые ночи (1985) [FB2]
  • Фёдор Достоевский | Белые ночи (2016) [MP3]


    • Комментарии (0):

      Информация

      Информация

        Посетители, находящиеся в группе Гости, не могут оставлять комментарии в данной новости.

        ↓ Меню




        ↓ Опрос

        Вы добавили сайт в закладки?
        Да
        Нет


        Top 10 за месяц (Фильмы)