.
Авторизация | Регистрация
Хочешь лучшие торренты? Добавь свой email!
Добавить

Торрент скачать бесплатно

» » Меч мести / Sword of Vengeance (2015) WEB-DLRip скачать через торрент бесплатно




    Меч мести / Sword of Vengeance (2015) WEB-DLRip скачать через торрент бесплатно

    Опубликовал: Админ | Дата: 29-03-2015, 04:04 | Просмотров: 108

    Производство: Великобритания
    Жанр: Боевик
    Режиссер: Джим Уидон
    Продюсер: Руперт Престон, Хуберта Фон Лиэль

    Актеры
    Стэнли Вебер, Эдвард Экрут, Misha Berich, Пит Чеффи, Джанни Джардинелли, Милица Жевтич, Вид Кркетжич, Дэйв Леджено, Ненад Печинар, Карел Роден

    Описание фильма

    После победы в битве при Гастингсе Вильгельм Завоеватель отправил свою армию на север Англии для совершения свирепого разорительного вторжения. Самый грозный полководец короля, граф Дюран, вырезал сто тысяч саксов и разорил их земли. Теперь Дюран правит севером вместе с сыновьями Артусом и Романом. Уцелевшие живут в постоянном страхе. Но загадочный чужестранец вскоре возглавит их восстание.
    Перевод: Любительский двухголосый (ColdFilm)

    Дата мировой премьеры: 5 марта 2015
    Продолжительность: 01: 26: 53
    Качество видео: WEB-DLRip
    Видео: XviD, 720x304, 1854 Кбит/с
    Аудио: AC3, 6 ch, 384 Кбит/с
    Общее
    Полное имя : C: NNMМеч местиMech mesti 2015 WEBDL-Rip.avi
    Формат : AVI
    Формат/Информация : Audio Video Interleave
    Размер файла : 1, 36 Гбайт
    Продолжительность : 1 ч. 26 м.
    Общий поток : 2248 Кбит/сек
    Программа кодирования : VirtualDubMod 1.5.10.2 (build 2540/release)
    Библиотека кодирования : VirtualDubMod build 2540/release
    Видео
    Идентификатор : 0
    Формат : MPEG-4 Visual
    Профиль формата : Advanced Simple@L5
    Параметр BVOP формата : 2
    Параметр QPel формата : Нет
    Параметр GMC формата : Без точки перехода
    Параметр матрицы формата : Default (MPEG)
    Идентификатор кодека : XVID
    Идентификатор кодека/Подсказка : XviD
    Продолжительность : 1 ч. 26 м.
    Битрейт : 1854 Кбит/сек
    Ширина : 720 пикселей
    Высота : 304 пикселя
    Соотношение сторон : 2, 35: 1
    Частота кадров : 24, 000 кадра/сек
    Цветовое пространство : YUV
    Субдискретизация насыщенности : 4: 2: 0
    Битовая глубина : 8 бит
    Тип развёртки : Прогрессивная
    Метод сжатия : С потерями
    Бит/(Пиксели*Кадры) : 0.353
    Размер потока : 1, 13 Гбайт (83%)
    Библиотека кодирования : XviD 1.2.1 (UTC 2008-12-04)
    Аудио
    Идентификатор : 1
    Формат : AC-3
    Формат/Информация : Audio Coding 3
    Расширение режима : CM (complete main)
    Идентификатор кодека : 2000
    Продолжительность : 1 ч. 26 м.
    Вид битрейта : Постоянный
    Битрейт : 384 Кбит/сек
    Каналы : 6 каналов
    Расположение каналов : Front: L C R, Side: L R, LFE
    Частота : 48, 0 КГц
    Битовая глубина : 16 бит
    Метод сжатия : С потерями
    Размер потока : 239 Мбайт (17%)
    Выравнивание : Разделение по промежуткам
    Продолжительность промежутка : 42 мс. (1, 00 видеокадр)
    Время предзагрузки промежутка : 500 мс.

    Скриншоты для ознакомления



    загрузка...
    Рейтинг →
     (голосов: 1, оценка 3/5, голосовать можно 1 раз )

    Другие торренты по теме:

  • Меч мести / Sword of Vengeance (2015) WEB-DLRip [576p] iPad скачать через торрент бесплатно
  • Меч мести / Sword of Vengeance (2015) WEB-DL [720p] ATV скачать через торрент бесплатно
  • Меч мести / Sword of Vengeance (2015) BDRip [H.264 / 720p] скачать через торрент бесплатно
  • Меч мести / Sword of Vengeance (2015) BDRemux [H.264 / 1080p] [EN / EN sub] скачать через торрент бесплатно
  • Меч мести / Sword of Vengeance (2015) BDRip [H.264] скачать через торрент бесплатно
  • Меч мести / Sword of Vengeance (2015) BDRemux [H.264 / 1080p] скачать через торрент бесплатно
  • Меч мести / Sword of Vengeance (2015) BDRip [H.264 / 720p] скачать через торрент бесплатно


    • Комментарии (0):

      Информация

      Информация

        Посетители, находящиеся в группе Гости, не могут оставлять комментарии в данной новости.

        ↓ Меню




        ↓ Опрос

        Вы добавили сайт в закладки?
        Да
        Нет


        Top 10 за месяц (Фильмы)