.
Авторизация | Регистрация
Хочешь лучшие торренты? Добавь свой email!
Добавить

Торрент скачать бесплатно

» » Петля Ориона (1980) DVDRip [H.264] скачать через торрент бесплатно




    Петля Ориона (1980) DVDRip [H.264] скачать через торрент бесплатно

    Опубликовал: Админ | Дата: 26-03-2015, 04:00 | Просмотров: 313

    Производство: СССР, Одесская киностудия
    Жанр: Фантастика
    Режиссер: Василий Левин

    Актеры
    Геннадий Шкуратов, Гиви Тохадзе, Анатолий Матешко, Юрий Меншагин, Анатолий Азо, Людмила Смородина, Леонид Бакштаев, Виталий Дорошенко, Андрей Градов, Елена Тонунц, Эрменгельд Коновалов

    Описание фильма

    В глубинах Космоса обнаружен загадочный сгусток энергии, приближающийся к Земле. Навстречу Петле Ориона (так назвали это явление) отправляется экспедиция со смешанным экипажем из людей и киборгов. Достигнув места назначения, они встречает неизвестную инопланетную цивилизацию, от которой узнают, что Земле грозит серьезная опасность — стеклянная болезнь. Инопланетяне пытаются спасти человечество, создав вокруг планеты энергетический барьер (а именно Петлю Ориона). Но путь к пониманию двух цивилизации оказывается тернист…

    Продолжительность: 01: 20: 27
    Качество видео: DVDRip
    Видеокодек: MPEG-4 AVC/H.264
    Битрейт видео: ~1953 Кбит/сек
    Размер кадра: 696x570@744x570
    Аудиокодек: AC3 5.1
    Битрейт аудио: 448 Кбит/сек
    Код:

    Общее
    Уникальный идентификатор : 252393943564363927538021901600752804222 (0xBDE14E2CAE04D9C99D6ED790E56A217E)
    Полное имя : T:Петля Ориона (1980) DVD5MKVПетля Ориона (1980) DVDRip.mkv
    Формат : Matroska
    Версия формата : Version 4/Version 2
    Размер файла : 1, 38 Гбайт
    Продолжительность : 1 ч. 20 м.
    Режим общего битрейта : Переменный
    Общий поток : 2450 Кбит/сек
    Дата кодирования : UTC 2015-03-08 21:47:23
    Программа кодирования : mkvmerge v7.6.0 (\'Garden of Dreams\') 64bit built on Feb 8 2015 13:04:34
    Библиотека кодирования : libebml v1.3.1 + libmatroska v1.4.2
    DURATION : 01:20:27.776000000
    NUMBER_OF_FRAMES : 150868
    NUMBER_OF_BYTES : 270355456
    _STATISTICS_WRITING_APP : mkvmerge v7.6.0 (\'Garden of Dreams\') 64bit built on Feb 8 2015 13:04:34
    _STATISTICS_WRITING_DATE_UTC : 2015-03-08 21:47:23
    _STATISTICS_TAGS : BPS DURATION NUMBER_OF_FRAMES NUMBER_OF_BYTES
    Видео
    Идентификатор : 1
    Формат : AVC
    Формат/Информация : Advanced Video Codec
    Профиль формата :High@L3.1
    Параметр CABAC формата : Да
    Параметр ReFrames формата : 2 кадра
    Идентификатор кодека : V_MPEG4/ISO/AVC
    Продолжительность : 1 ч. 20 м.
    Вид битрейта : Переменный
    Битрейт : 1953 Кбит/сек
    Максимальный битрейт : 14, 0 Мбит/сек
    Ширина : 696 пикселей
    Высота : 570 пикселей
    Соотношение сторон : 4:3
    Режим частоты кадров : Постоянный
    Частота кадров : 25, 000 кадров/сек
    Цветовое пространство : YUV
    Субдискретизация насыщенности : 4:2:0
    Битовая глубина : 8 бит
    Тип развёртки : Прогрессивная
    Бит/(Пиксели*Кадры) : 0.197
    Размер потока : 1, 10 Гбайт (80%)
    Язык : Russian
    Default : Да
    Forced : Нет
    Аудио
    Идентификатор : 2
    Формат : AC-3
    Формат/Информация : Audio Coding 3
    Расширение режима : CM (complete main)
    Параметр Endianness формата : Big
    Идентификатор кодека : A_AC3
    Продолжительность : 1 ч. Самое интересное в это истории, что об этом Горбачев ничего не знал. 20 м.
    Вид битрейта : Постоянный
    Битрейт : 448 Кбит/сек
    Каналы : 6 каналов
    Расположение каналов : Front: L C R, Side: L R, LFE
    Частота : 48, 0 КГц
    Битовая глубина : 16 бит
    Метод сжатия : С потерями
    Размер потока : 258 Мбайт (18%)
    Язык : Russian
    Default : Да
    Forced : Нет

    Скриншоты для ознакомления



    загрузка...
    Рейтинг →
     (голосов: 1, оценка 4/5, голосовать можно 1 раз )

    Другие торренты по теме:

  • Знать будущее. Жизнь после Ванги. История 1. Петля желания (2014.11.10) SATRip скачать через торрент бесплатно
  • Вадим Панов | Кардонийская петля (2014) [MP3] скачать через торрент бесплатно
  • Петля времени / Looper (2012) BDRip [720p] ATV скачать через торрент бесплатно
  • Петля времени / Looper (2012) BDRip [1080p] ATV скачать через торрент бесплатно
  • Петля времени (2014) WEB-DLRip [H.264] (серии 1-4 из 4) скачать через торрент бесплатно
  • Петля времени (2014) WEB-DLRip (серии 1-4 из 4) скачать через торрент бесплатно
  • Петля Нестерова (2015) WEB-DL [H.264 / 720p-LQ] (серии 1-8 из 8) скачать через торрент бесплатно
  • Петля Нестерова (2015) HDTVRip [H.264] (серии 1- из 8) (обновляемая) скачать через торрент бесплатно


    • Комментарии (0):

      Информация

      Информация

        Посетители, находящиеся в группе Гости, не могут оставлять комментарии в данной новости.

        ↓ Меню




        ↓ Опрос

        Вы добавили сайт в закладки?
        Да
        Нет


        Top 10 за месяц (Фильмы)