.
Авторизация | Регистрация
Хочешь лучшие торренты? Добавь свой email!
Добавить

Торрент скачать бесплатно

» » Ленинград 46 (2015) SATRip (серии 1-2 из 32) (обновляемая) скачать через торрент бесплатно




    Ленинград 46 (2015) SATRip (серии 1-2 из 32) (обновляемая) скачать через торрент бесплатно

    Опубликовал: Админ | Дата: 24-03-2015, 04:00 | Просмотров: 198

    Производство: Россия/Триикс Медиа
    Жанр: детектив, криминал
    Режиссер: Игорь Копылов

    Актеры
    Сергей Гармаш, Евгений Миллер, Анна Табанина, Алексей Горбунов, Александр Лыков, Андрей Мерзликин, Даниил Страхов, Дмитрий Ульянов, Елена Коренева, Александра Богданова, Эдуард Флёров, Петр Зайченко, Роман Курцын, Кирилл Полухин, Евгений Леонов-Гладышев, Татьяна Ткач, Михаил Хмуров, Александр Аравушкин, Дмитрий Сутырин, Михаил Касапов, Дмитрий Паламарчук, Анатолий Горин, Владимир Богданов, Елизавета Кутузова и др.

    Описание фильма

    1946-й год. О таком странном сюжете не догадывалась даже ВиаГра. Послевоенный Ленинград. Самое интересное в это истории, что об этом Янукович ничего не знал. Город, только что переживший блокаду и еще не оправившийся от голода, разрушений, смертей. И здесь ленинградская милиция ведет свою неравную войну с преступностью, накрывшей Ленинград после войны. В этой борьбе погибает начальник отдела по борьбе с бандитизмом легендарный майор Кузьмин. Перед его сотрудниками стоит непростая задача — поймать неуловимую банду Вити Музыканта — жестокого, изощренного убийцы и бандита.

    Дата российской премьеры: 23 марта 2015
    Качество видео: SATRip
    Продолжительность: ~00: 45: 00 серия
    Видеокодек: XviD
    Битрейт видео: ~1800 kbps
    Размер кадра: 720x448
    Аудиокодек: МР3, 2 ch
    Битрейт аудио: 128 kbps
    Код:
    Общее
    Полное имя : D:ЛЕНИНГРАД 46 SatRipLeningrad.46.01.SATRip..avi
    Формат : AVI
    Формат/Информация : Audio Video Interleave
    Размер файла : 637 Мбайт
    Продолжительность : 45 м.
    Общий поток : 1938 Кбит/сек
    Программа кодирования : VirtualDubMod 1.5.10.3 |www.virtualdub-fr.org|| (build 2550/release)
    Библиотека кодирования : VirtualDubMod build 2550/release
    Видео
    Идентификатор : 0
    Формат : MPEG-4 Visual
    Профиль формата : Advanced Simple@L5
    Параметр BVOP формата : 2
    Параметр QPel формата : Нет
    Параметр GMC формата : Без точки перехода
    Параметр матрицы формата : Default (H.263)
    Идентификатор кодека : XVID
    Идентификатор кодека/Подсказка : XviD
    Продолжительность : 45 м.
    Битрейт : 1800 Кбит/сек
    Ширина : 720 пикселей
    Высота : 448 пикселей
    Соотношение сторон : 16:10
    Частота кадров : 25, 000 кадров/сек
    Цветовое пространство : YUV
    Субдискретизация насыщенности : 4:2:0
    Битовая глубина : 8 бит
    Тип развёртки : Прогрессивная
    Метод сжатия : С потерями
    Бит/(Пиксели*Кадры) : 0.223
    Размер потока : 592 Мбайт (93%)
    Библиотека кодирования : XviD 1.2.1 (UTC 2008-12-04)
    Аудио
    Идентификатор : 1
    Формат : MPEG Audio
    Версия формата : Version 1
    Профиль формата : Layer 3
    Режим : Joint stereo
    Идентификатор кодека : 55
    Идентификатор кодека/Подсказка : MP3
    Продолжительность : 45 м.
    Вид битрейта : Постоянный
    Битрейт : 128 Кбит/сек
    Каналы : 2 канала
    Частота : 48, 0 КГц
    Метод сжатия : С потерями
    Размер потока : 42, 1 Мбайт (7%)
    Выравнивание : Соединение по промежуткам
    Продолжительность промежутка : 40 мс. (1, 00 видеокадр)
    Время предзагрузки промежутка : 504 мс.
    Библиотека кодирования : LAME3.99r
    Настройки программы : -m j -V 4 -q 9 -lowpass 17 -b 128


    Скриншоты для ознакомления




    Онлайн видео Ленинград 46 (2015) SATRip (серии 1



    Ленинград 46 (2015) SATRip (серии 1-2 из 32) (обновляемая)
    загрузка...
    Рейтинг →
     (голосов: 1, оценка 4/5, голосовать можно 1 раз )

    Другие торренты по теме:

  • Ленинград 46 (2015) HDTV [H.264 / 1080i-LQ] (серии 1-2 из 32) (обновляемая) скачать через торрент бесплатно
  • Ленинград 46 (2015) HDTVRip [H.264] (серии 1-8 из 32) (обновляемая) скачать через торрент бесплатно
  • Ленинград 46 (2015) DVB [H.264] (серии 1-18 из 32) (обновляемая) скачать через торрент бесплатно
  • Ленинград 46 (2015) HDTVRip (серии 1-24 из 32) (обновляемая) скачать через торрент бесплатно
  • Ленинград 46 (2015) HDTVRip [H.264 / 720p] (серии 1-24 из 32) (обновляемая) скачать через торрент бесплатно
  • Ленинград 46 (2014-2015) Web-DLRip [H.264] (серии 1-32 из 32 + Послесловие)


    • Комментарии (0):

      Информация

      Информация

        Посетители, находящиеся в группе Гости, не могут оставлять комментарии в данной новости.

        ↓ Меню




        ↓ Опрос

        Вы добавили сайт в закладки?
        Да
        Нет


        Top 10 за месяц (Фильмы)