.
Авторизация | Регистрация
Хочешь лучшие торренты? Добавь свой email!
Добавить

Торрент скачать бесплатно

» » Ленинград 46 (2015) HDTV [H.264 / 1080i-LQ] (серии 1-2 из 32) (обновляемая) скачать через торрент бесплатно




    Ленинград 46 (2015) HDTV [H.264 / 1080i-LQ] (серии 1-2 из 32) (обновляемая) скачать через торрент бесплатно

    Опубликовал: Админ | Дата: 24-03-2015, 04:00 | Просмотров: 153

    Производство: Россия/Триикс Медиа
    Жанр: детектив, криминал
    Режиссер: Игорь Копылов

    Актеры
    Сергей Гармаш, Евгений Миллер, Анна Табанина, Алексей Горбунов, Александр Лыков, Андрей Мерзликин, Даниил Страхов, Дмитрий Ульянов, Елена Коренева, Александра Богданова, Эдуард Флёров, Петр Зайченко, Роман Курцын, Кирилл Полухин, Евгений Леонов-Гладышев, Татьяна Ткач, Михаил Хмуров, Александр Аравушкин, Дмитрий Сутырин, Михаил Касапов, Дмитрий Паламарчук, Анатолий Горин, Владимир Богданов, Елизавета Кутузова и др.

    Описание фильма

    1946-й год. Послевоенный Ленинград. Город, только что переживший блокаду и еще не оправившийся от голода, разрушений, смертей. И здесь ленинградская милиция ведет свою неравную войну с преступностью, накрывшей Ленинград после войны. В этой борьбе погибает начальник отдела по борьбе с бандитизмом легендарный майор Кузьмин. Перед его сотрудниками стоит непростая задача — поймать неуловимую банду Вити Музыканта — жестокого, изощренного убийцы и бандита.

    Дата российской премьеры: 23 марта 2015
    Качество видео: HDTV (1080i)
    Продолжительность: ~00: 45: 00 серия
    Видеокодек: MPEG-4 AVC
    Битрейт видео: ~9000 kbps
    Размер кадра: 1920x1080
    Аудиокодек: МР2, 2 ch
    Битрейт аудио: 256 kbps
    Код:
    Общее
    Идентификатор : 1 (0x1)
    Полное имя : D:ЛЕНИНГРАД.46.2015.HDTV.(1080i)Leningrad.46.(01.seriya).2015.HDTV.(1080i).ts
    Формат : MPEG-TS
    Размер файла : 3, 24 Гбайт
    Продолжительность : 45 м.
    Режим общего битрейта : Переменный
    Общий поток : 10, 1 Мбит/сек
    Видео
    Идентификатор : 2202 (0x89A)
    Идентификатор меню : 2201 (0x899)
    Формат : AVC
    Формат/Информация : Advanced Video Codec
    Профиль формата :High@L4.0
    Параметр CABAC формата : Да
    Параметр ReFrames формата : 4 кадра
    Идентификатор кодека : 27
    Продолжительность : 45 м.
    Битрейт : 9319 Кбит/сек
    Ширина : 1920 пикселей
    Высота : 1080 пикселей
    Соотношение сторон : 16:9
    Частота кадров : 25, 000 кадров/сек
    Стандарт вещания : Component
    Цветовое пространство : YUV
    Субдискретизация насыщенности : 4:2:0
    Битовая глубина : 8 бит
    Тип развёртки : Чересстрочная
    Порядок развёртки : Верхнее поле первое
    Бит/(Пиксели*Кадры) : 0.180
    Размер потока : 2, 99 Гбайт (92%)
    Основные цвета : BT.709
    Характеристики трансфера : BT.709
    Коэффициенты матрицы : BT.709
    Аудио
    Идентификатор : 2203 (0x89B)
    Идентификатор меню : 2201 (0x899)
    Формат : MPEG Audio
    Версия формата : Version 1
    Профиль формата : Layer 2
    Идентификатор кодека : 3
    Продолжительность : 45 м.
    Вид битрейта : Постоянный
    Битрейт : 256 Кбит/сек
    Каналы : 2 канала
    Частота : 48, 0 КГц
    Метод сжатия : С потерями
    Задержка видео : -80 мс.
    Размер потока : 84, 2 Мбайт (3%)
    Язык : Russian


    Скриншоты для ознакомления




    Онлайн видео Ленинград 46 (2015) HDTV [H.264



    Ленинград 46 (2015) HDTV [H.264/1080i-LQ] (серии 1-2 из 32) (обновляемая)
    загрузка...
    Рейтинг →
     (голосов: 1, оценка 3/5, голосовать можно 1 раз )

    Другие торренты по теме:

  • Ленинград 46 (2015) SATRip (серии 1-2 из 32) (обновляемая) скачать через торрент бесплатно
  • Ленинград 46 (2015) HDTVRip [H.264] (серии 1-8 из 32) (обновляемая) скачать через торрент бесплатно
  • Ленинград 46 (2015) DVB [H.264] (серии 1-18 из 32) (обновляемая) скачать через торрент бесплатно
  • Ленинград 46 (2015) HDTVRip (серии 1-24 из 32) (обновляемая) скачать через торрент бесплатно
  • Ленинград 46 (2015) HDTVRip [H.264 / 720p] (серии 1-24 из 32) (обновляемая) скачать через торрент бесплатно
  • Ленинград 46 (2014-2015) Web-DLRip [H.264] (серии 1-32 из 32 + Послесловие)


    • Комментарии (0):

      Информация

      Информация

        Посетители, находящиеся в группе Гости, не могут оставлять комментарии в данной новости.

        ↓ Меню




        ↓ Опрос

        Вы добавили сайт в закладки?
        Да
        Нет


        Top 10 за месяц (Фильмы)