.
Авторизация | Регистрация
Хочешь лучшие торренты? Добавь свой email!
Добавить

Торрент скачать бесплатно

» » Родословная / Bloodline (2015) WEBRip (сезон 1, серии 1 из 13) NewStudio (обновляемая) скачать через торрент бесплатно




    Родословная / Bloodline (2015) WEBRip (сезон 1, серии 1 из 13) NewStudio (обновляемая) скачать через торрент бесплатно

    Опубликовал: Админ | Дата: 22-03-2015, 04:00 | Просмотров: 98

    Производство: США
    Жанр: триллер, драма
    Перевод: Многоголосый закадровый, профессиональный -NewStudio

    Автор перевода: Александра Цернант, MartinaG
    Сэмпл
    Дата мировой премьеры: 20 марта 2015
    Режиссер: Йохан Ренк, Дэниэл Эттиэс, Саймон Селлан Джоунс

    Актеры
    Кайл Чандлер, Норберт Лео Батц, Джейми МакШейн, Линда Карделлини, Бен Мендельсон, Сисси Спейсек, Элизер Кастро, Оуэн Тиг и др.

    Описание фильма

    История о взрослых братьях и сестрах, чьи секреты всплывают наружу, когда их брат, являющийся позором их семьи, возвращается домой.
    Продолжительность: ~00: 59: 00 серия
    Качество видео: WEBRip
    Видеокодек: XviD
    Формат: AVI
    Битрейт видео: ~1400 kb/s
    Размер кадра: 720х400 (16: 9)
    Аудио Rus: (MPEG Layer 3, 48, 0 kHz, 2 ch, 128 kb/s) - многоголосый закадровый
    Аудио Eng: (MPEG Layer 3, 48, 0 kHz, 2 ch, 128 kb/s) - оригинал
    Общее
    Полное имя : D: Родословная (сезон любимого сериала 1) Bloodline (2015) WEBRip - NewStudioBloodline.s01e01.WEBRip.NewStudio.TV.avi
    Формат : AVI
    Формат/Информация : Audio Video Interleave
    Размер файла : 700 Мбайт
    Продолжительность : 59 м.
    Общий поток : 1650 Кбит/сек
    Программа кодирования : VirtualDubMod 1.5.10.2 (build 2540/release)
    Библиотека кодирования : VirtualDubMod build 2540/release
    Видео
    Идентификатор : 0
    Формат : MPEG-4 Visual
    Профиль формата : Advanced Simple@L5
    Параметр BVOP формата : Нет
    Параметр QPel формата : Нет
    Параметр GMC формата : Без точки перехода
    Параметр матрицы формата : Default (H.263)
    Идентификатор кодека : XVID
    Идентификатор кодека/Подсказка : XviD
    Продолжительность : 59 м.
    Битрейт : 1380 Кбит/сек
    Ширина : 720 пикселей
    Высота : 400 пикселей
    Соотношение сторон : 16: 9
    Частота кадров : 23, 976 кадра/сек
    Цветовое пространство : YUV
    Субдискретизация насыщенности : 4: 2: 0
    Битовая глубина : 8 бит
    Тип развёртки : Прогрессивная
    Метод сжатия : С потерями
    Бит/(Пиксели*Кадры) : 0.200
    Размер потока : 585 Мбайт (84%)
    Библиотека кодирования : XviD 73
    Аудио #1
    Идентификатор : 1
    Формат : MPEG Audio
    Версия формата : Version 1
    Профиль формата : Layer 3
    Режим : Joint stereo
    Расширение режима : MS Stereo
    Идентификатор кодека : 55
    Идентификатор кодека/Подсказка : MP3
    Продолжительность : 59 м.
    Вид битрейта : Постоянный
    Битрейт : 128 Кбит/сек
    Каналы : 2 канала
    Частота : 48, 0 КГц
    Метод сжатия : С потерями
    Размер потока : 54, 3 Мбайт (8%)
    Выравнивание : Соединение по промежуткам
    Продолжительность промежутка : 42 мс. (1, 00 видеокадр)
    Время предзагрузки промежутка : 504 мс.
    Аудио #2
    Идентификатор : 2
    Формат : MPEG Audio
    Версия формата : Version 1
    Профиль формата : Layer 3
    Режим : Joint stereo
    Расширение режима : MS Stereo
    Идентификатор кодека : 55
    Идентификатор кодека/Подсказка : MP3
    Продолжительность : 59 м.
    Вид битрейта : Постоянный
    Битрейт : 128 Кбит/сек
    Каналы : 2 канала
    Частота : 48, 0 КГц
    Метод сжатия : С потерями
    Размер потока : 54, 3 Мбайт (8%)
    Выравнивание : Соединение по промежуткам
    Продолжительность промежутка : 42 мс. О таком странном сюжете не догадывалась даже ВиаГра. (1, 00 видеокадр)
    Время предзагрузки промежутка : 504 мс.
    Библиотека кодирования : LAME3.90.3


    Скриншоты для ознакомления




    Родословная/Bloodline (2015) WEBRip (сезон 1, серии 1 из 13) NewStudio (обновляемая)
    загрузка...
    Рейтинг →
     (голосов: 1, оценка 4/5, голосовать можно 1 раз )

    Другие торренты по теме:

  • Моя родословная. Ирина Роднина (2010) SATRip скачать через торрент бесплатно
  • Родословная / Bloodline (2015) WEBRip (сезон 1, серии 1-2 из 13) AlexFilm (обновляемая) скачать через торрент бесплатно
  • Родословная / Bloodline (2015) WEBRip (сезон 1, серии 1 из 13) BaibaKo (обновляемая) скачать через торрент бесплатно
  • Родословная / Bloodline (2015) WEBRip [H.264 / 720p-LQ] (Сезон 1, серии 1-2 из 13) (AlexFilm) (обновляемая) скачать через торрент бесплатно
  • Родословная / Bloodline (2015) WEBRip [H.264 / 720p-LQ] (Сезон 1, серии 1-2 из 13) (BaibaKo) (обновляемая) скачать через торрент бесплатно
  • Родословная / Bloodline (2015) WEBRip [H.264 / 720p-LQ] (Сезон 1, серия 1 из 13) (NewStudio) (обновляемая) скачать через торрент бесплатно
  • Родословная / Bloodline (2016) WEBRip (сезон 2, серии 1-5 из 13) NewStudio (обновляемая)
  • Родословная / Bloodline (2016) WEBRip [H.264 / 720p-LQ] (Сезон 2, серии 1-10 из 13) ColdFilm (обновляемая)


    • Комментарии (0):

      Информация

      Информация

        Посетители, находящиеся в группе Гости, не могут оставлять комментарии в данной новости.

        ↓ Меню




        ↓ Опрос

        Вы добавили сайт в закладки?
        Да
        Нет


        Top 10 за месяц (Фильмы)