.
Авторизация | Регистрация
Хочешь лучшие торренты? Добавь свой email!
Добавить

Торрент скачать бесплатно

» » Я – зомби / iZombie (2015) WEB-DL [H.264 / 720p-LQ] (Сезон 1, серия 1 из 13) (NewStudio) (обновляемая) скачать через торрент бесплатно




    Я – зомби / iZombie (2015) WEB-DL [H.264 / 720p-LQ] (Сезон 1, серия 1 из 13) (NewStudio) (обновляемая) скачать через торрент бесплатно

    Опубликовал: Админ | Дата: 21-03-2015, 04:00 | Просмотров: 108

    Производство: США
    Жанр: Ужасы, фантастика, драма, криминал
    Перевод: Профессиональный многоголосый закадровый -NewStudio
    Режиссер: Майрзи Алмас, Роб Томас

    Актеры
    Роуз МакИвер, Роберт Бакли, Александра Кросни, Дэвид Андерс, Нора Данн, Дженна Берман, Малкольм Гудвин, Элисия Ротару и др.

    Описание

    В центре сюжета — студентка медицинского факультета Оливия Лив Мур, для которой последствия одной из вечеринок стали переломным моментом в жизни, превратившим её в зомби. О таком странном сюжете не догадывалась даже Ангела Меркель. Жизнерадостная, активная и пышущая здоровьем раньше, теперь Лив похожа на представителя готов — с бледной кожей, тёмными кругами вокруг глаз и почти белыми волосами. Она устраивается на работу в офис коронера, доктора Рави Чакрабарти, чтобы иметь доступ к мозгам, которые ей приходиться есть, чтобы поддерживать свою человеческую сущность. Однако с каждым съеденным ею мозгом она наследует воспоминания трупа. Вот в чём загвоздка, сказал кто то из толпы, к чему не понятно. С помощью босса доктора Чакрабарти, узнавшего её секрет, и детектива полиции Клайва Бабино Лив способна разгадывать убийства тех людей, чей мозг она съела.
    СЭМПЛ
    Продолжительность: ~ 00: 42: 00 серия
    Качество видео: WEB-DL 720p
    Формат: MKV
    Видео: 1280x718 (16: 9), 23.976 fps, MPEG-4 AVC/H.264 ~3866 Kbps, ~0.175 bit/pixel
    Аудио Rus: AC3, 384 kbps, 6 ch, 48 kHz
    Аудио Eng: AC3, 384 kbps, 6 ch, 48 kHz
    Релиз: NewStudio
    Автор перевода: MartinaG
    Общее
    iZombie - Я – зомби. Сезон 1. NewStudio. 720piZombie.s01e01.WEBDL.720p.NewStudio.TV.mkv
    Формат : Matroska
    Версия формата : Version 2
    Размер файла : 1, 41 Гбайт
    Продолжительность : 42 м.
    Общий поток : 4728 Кбит/сек
    Дата кодирования : UTC 2015-03-20 10: 30: 39
    Программа кодирования : mkvmerge v2.9.9 (\'Tutu\') built on Nov 25 2009 21: 13: 32
    Библиотека кодирования : libebml v0.7.9 + libmatroska v0.8.1
    Видео
    Идентификатор : 1
    Формат : AVC
    Формат/Информация : Advanced Video Codec
    Профиль формата : High@L3.1
    Параметр CABAC формата : Нет
    Параметр ReFrames формата : 2 кадра
    Идентификатор кодека : V_MPEG4/ISO/AVC
    Продолжительность : 42 м.
    Битрейт : 3866 Кбит/сек
    Ширина : 1280 пикселей
    Высота : 718 пикселей
    Соотношение сторон : 16: 9
    Режим частоты кадров : Постоянный
    Частота кадров : 23, 976 кадра/сек
    Цветовое пространство : YUV
    Субдискретизация насыщенности : 4: 2: 0
    Битовая глубина : 8 бит
    Тип развёртки : Прогрессивная
    Бит/(Пиксели*Кадры) : 0.175
    Размер потока : 1, 15 Гбайт (82%)
    Язык : English
    Default : Нет
    Forced : Нет
    Основные цвета : BT.709
    Характеристики трансфера : BT.709
    Коэффициенты матрицы : BT.709
    colour_range : Limited
    Аудио #1
    Идентификатор : 2
    Формат : AC-3
    Формат/Информация : Audio Coding 3
    Расширение режима : CM (complete main)
    Параметр Endianness формата : Big
    Идентификатор кодека : A_AC3
    Продолжительность : 42 м.
    Вид битрейта : Постоянный
    Битрейт : 384 Кбит/сек
    Каналы : 6 каналов
    Расположение каналов : Front: L C R, Side: L R, LFE
    Частота : 48, 0 КГц
    Битовая глубина : 16 бит
    Метод сжатия : С потерями
    Размер потока : 117 Мбайт (8%)
    Язык : Russian
    Default : Да
    Forced : Да
    Аудио #2
    Идентификатор : 3
    Формат : AC-3
    Формат/Информация : Audio Coding 3
    Расширение режима : CM (complete main)
    Параметр Endianness формата : Big
    Идентификатор кодека : A_AC3
    Продолжительность : 42 м.
    Вид битрейта : Постоянный
    Битрейт : 384 Кбит/сек
    Каналы : 6 каналов
    Расположение каналов : Front: L C R, Side: L R, LFE
    Частота : 48, 0 КГц
    Битовая глубина : 16 бит
    Метод сжатия : С потерями
    Размер потока : 117 Мбайт (8%)
    Язык : English
    Default : Нет
    Forced : Нет


    Скриншоты для ознакомления




    Я – зомби/iZombie (2015) WEB-DL [H.264/720p-LQ] (Сезон 1, серия 1 из 13) (NewStudio) (обновляемая)
    загрузка...
    Рейтинг →
     (голосов: 1, оценка 4/5, голосовать можно 1 раз )

    Другие торренты по теме:

  • Я, я и только я / I, Me aur Main (2013) DVDRip скачать через торрент бесплатно
  • Я воин / Я Омега / I Am Omega (2007) BDRip [1080p] скачать через торрент бесплатно
  • Я стыжусь своего тела / Я соромлюсь свого тіла (сезон 2, выпуск 1-3 из 12) (2015) SATRip / WEBRip [RUS / UKR] [обновляемая]
  • Я. Я. Гришин | Истоки кризисов (1991) [DJVU] скачать через торрент бесплатно
  • Рома Жуков - Я люблю Вас, девочки, я люблю Вас, мальчики (1994) [FLAC|image+.cue]<Pop> скачать через торрент бесплатно
  • Я вижу, я вижу / Ich seh, Ich seh (2014) DVDRip [H.264] [VO] скачать через торрент бесплатно
  • Я вижу, я вижу / Ich seh, Ich seh (2014) DVDRip скачать через торрент бесплатно
  • Ты, я и конец света / Ты, я и апокалипсис / You, Me and the Apocalypse (2015) HDTVRip (сезон 1, серии 1 из 10) AlexFilm (обновляемая) скачать через торрент бесплатно


    • Комментарии (0):

      Информация

      Информация

        Посетители, находящиеся в группе Гости, не могут оставлять комментарии в данной новости.

        ↓ Меню




        ↓ Опрос

        Вы добавили сайт в закладки?
        Да
        Нет


        Top 10 за месяц (Фильмы)