.
Авторизация | Регистрация
Хочешь лучшие торренты? Добавь свой email!
Добавить

Торрент скачать бесплатно

» » Взгляд в прошлое / Hindsight (2015) WEB-DLRip (сезон 1, серии 01-07 из 10) (обновляемая) скачать через торрент бесплатно




    Взгляд в прошлое / Hindsight (2015) WEB-DLRip (сезон 1, серии 01-07 из 10) (обновляемая) скачать через торрент бесплатно

    Опубликовал: Админ | Дата: 21-03-2015, 04:00 | Просмотров: 109

    Производство: США, POP Films, Timberman-Beverly Productions
    Жанр: драма, комедия, фэнтези, триллер
    Перевод: Двуголосый закадровый, любительский - HamsterStudio
    Озвучка: Вячеслав Айсберг и Анастасия Снегирева
    Cведение звука: Иван Козлов
    Режиссер: Майкл Трим, Брэдли Уолш, Джонатан Фрейкс

    Актеры
    Лаура Рэмси, Сара Голдберг, Крэйг Хорнер, Джон Патрик Амедори, Ник Клиффорд, Джесси Ходжес, Дрю Сидора, Брайан Кервин, Стив Тэлли и др.

    Описание фильма

    Как изменилась бы ваша жизнь, если бы была возможность изменить прошлое? Накануне своей второй свадьбы Бекка часто задаётся этим вопросом и очень скучает по своей подруге Лолли, с которой не виделась уже десять лет. Неожиданно Бекка получает второй шанс - лифт привозит её в 1995 год, в то самое утро, когда она должна выйти замуж в первый раз. Готовы ли вы отправиться в девяностые вместе с ней и посмотреть, изменится ли что-нибудь в её жизни к лучшему?

    Дата мировой премьеры: 7 января 2015
    Продолжительность: ~ 00: 42: 00 серия
    Качество видео: WEB-DLRip
    Видеокодек: XviD
    Битрейт видео: ~ 1900 Кбит/с
    Размер кадра: 720x400 (16: 9)
    Частота кадров: 23, 976 кадр/с
    Аудиокодек: MP3, 2ch
    Битрейт аудио: 128 Кбит/с
    Рип: ivandubskoj
    Код:
    General
    Complete name : Hindsight.s01e01.WEB-DLRip.avi
    Format : AVI
    Format/Info : Audio Video Interleave
    File size : 623 MiB
    Duration : 41mn 46s
    Overall bit rate : 2 084 Kbps
    Writing application : VirtualDubMod 1.5.10.3 (build 2550/release)
    Writing library : VirtualDubMod build 2550/release
    Video
    ID : 0
    Format : MPEG-4 Visual
    Format profile : Advanced Simple@L5
    Format settings, BVOP : 1
    Format settings, QPel : No
    Format settings, GMC : No warppoints
    Format settings, Matrix : Custom
    Codec ID : XVID
    Codec ID/Hint : XviD
    Duration : 41mn 46s
    Bit rate : 1 947 Kbps
    Width : 720 pixels
    Height : 400 pixels
    Display aspect ratio : 16:9
    Frame rate : 23.976 fps
    Color space : YUV
    Chroma subsampling : 4:2:0
    Bit depth : 8 bits
    Scan type : Progressive
    Compression mode : Lossy
    Bits/(Pixel*Frame) : 0.282
    Stream size : 582 MiB (93%)
    Writing library : XviD 73
    Audio
    ID : 1
    Format : MPEG Audio
    Format version : Version 1
    Format profile : Layer 3
    Codec ID : 55
    Codec ID/Hint : MP3
    Duration : 41mn 46s
    Bit rate mode : Constant
    Bit rate : 128 Kbps
    Channel(s) : 2 channels
    Sampling rate : 48.0 KHz
    Compression mode : Lossy
    Stream size : 38.2 MiB (6%)
    Alignment : Aligned on interleaves
    Interleave, duration : 42 ms (1.00 video frame)
    Interleave, preload duration : 504 ms
    Writing library : LAME3.99r
    Encoding settings : -m s -V 4 -q 0 -lowpass 17 -b 128


    Скриншоты для ознакомления




    Взгляд в прошлое/Hindsight (2015) WEB-DLRip (сезон 1, серии 01-07 из 10) (обновляемая)
    загрузка...
    Рейтинг →
     (голосов: 1, оценка 5/5, голосовать можно 1 раз )

    Другие торренты по теме:

  • Взгляд в прошлое / Hindsight (2015) WEB-DL [H.264 / 1080p-LQ] (сезон 1, серии 1-2 из 10) (HamsterStudio) (обновляемая)
  • VA - Europa Plus Euro Hit Top-100 Взгляд в прошлое vol.19 (2015) [MP3|192 - 320 кб / с]<Pop, Dance> скачать через торрент бесплатно
  • VA - Europa Plus Euro Hit Top-100 Взгляд в прошлое vol.20 (2015) [MP3|192 - 320 кб / с]<Pop, Dance> скачать через торрент бесплатно
  • VA - Europa Plus Euro Hit Top-100 Взгляд в прошлое vol.20-Bonus2009 (2015) [MP3|160 - 320 кб / с]<Pop, Dance> скачать через торрент бесплатно
  • VA - Europa Plus Euro Hit Top-100 Взгляд в прошлое vol.21 (2015) [MP3|182 - 320 кб / с]<Pop, Dance> скачать через торрент бесплатно
  • Взгляд в прошлое / Флэшбэк / Flashback (1990) WEB-DLRip [H.264] [AVO] скачать через торрент бесплатно
  • Гелиан Михайлович Прохоров | Древнерусское летописание. Взгляд в неповторимое (2014) [PDF]
  • Взгляд в прошлое / Флэшбэк / Flashback (1990) WEB-DL [H.264 / 720p-LQ]


    • Комментарии (0):

      Информация

      Информация

        Посетители, находящиеся в группе Гости, не могут оставлять комментарии в данной новости.

        ↓ Меню




        ↓ Опрос

        Вы добавили сайт в закладки?
        Да
        Нет


        Top 10 за месяц (Фильмы)