.
Авторизация | Регистрация
Хочешь лучшие торренты? Добавь свой email!
Добавить

Торрент скачать бесплатно

» » Закон каменных джунглей (2015) WEB-DLRip (серия 1-4 из 8) (обновляемая) скачать через торрент бесплатно




    Закон каменных джунглей (2015) WEB-DLRip (серия 1-4 из 8) (обновляемая) скачать через торрент бесплатно

    Опубликовал: Админ | Дата: 21-03-2015, 04:00 | Просмотров: 89

    Производство: Россия, СинеПро, ТНТ
    Жанр: драма, криминал, детектив, молодёжный
    Режиссер: Игорь Хомский, Иван Бурлаков

    Актеры
    Аристарх Венес, Никита Павленко, Игорь Огурцов, Александр Мельников, Даниил Вахрушев, Владимир Сычёв, Александр Петров, Юлия Хлынина, Елизавета Кононова, Дарья Руденок, Светлана Садковская, Роман Синицын, Дмитрий Власкин, Руслан Братов, Сергей Глушко, Мария Сурова, Андрей Коровниченко, Дмитрий Поддубный, Лариса Никитина, Александр Боровиков, Татьяна Конышева

    Описание фильма

    Четыре парня с окраины Москвы решают заработать легких денег — перегнать машину с краденым грузом внутри. Не особо задумываясь о последствиях, они совершают одну ошибку за другой, и очень скоро у них появляются серьезные проблемы с законом. О таком странном сюжете не догадывалась даже Настя Каменских. Теперь пути назад нет и, чтобы выжить, четырем друзьям нужно во что бы то ни стало держаться вместе.о.

    Дата российской премьеры: 16 марта 2015
    Качество видео: WEB-DLRip Исходник: WEB-DL (720p)
    Продолжительность: ~ 00: 43: 00 серия
    Видеокодек: XviD
    Битрейт видео: ~ 1800 Кбит/с
    Размер кадра: 704x400 (16: 9)
    Частота кадров: 25 кадр/с
    Аудиокодек: MP3 (2.0)
    Битрейт аудио: 128 Кбит/с
    Рип: ivandubskoj
    Код:

    General
    Complete name : ZKD.s01.e04.2015.WEB-DLRip.avi
    Format : AVI
    Format/Info : Audio Video Interleave
    File size : 601 MiB
    Duration : 42mn 46s
    Overall bit rate : 1 963 Kbps
    Writing application : VirtualDubMod 1.5.10.3 |www.virtualdub-fr.org|| (build 2550/release)
    Writing library : VirtualDubMod build 2550/release
    Copyright : rip by ivandubskoj
    Video
    ID : 0
    Format : MPEG-4 Visual
    Format profile : Advanced Simple@L5
    Format settings, BVOP : 1
    Format settings, QPel : No
    Format settings, GMC : No warppoints
    Format settings, Matrix : Custom
    Codec ID : XVID
    Codec ID/Hint : XviD
    Duration : 42mn 46s
    Bit rate : 1 825 Kbps
    Width : 704 pixels
    Height : 400 pixels
    Display aspect ratio : 16:9
    Frame rate : 25.000 fps
    Color space : YUV
    Chroma subsampling : 4:2:0
    Bit depth : 8 bits
    Scan type : Progressive
    Compression mode : Lossy
    Bits/(Pixel*Frame) : 0.259
    Stream size : 558 MiB (93%)
    Writing library : XviD 73
    Audio
    ID : 1
    Format : MPEG Audio
    Format version : Version 1
    Format profile : Layer 3
    Codec ID : 55
    Codec ID/Hint : MP3
    Duration : 42mn 46s
    Bit rate mode : Constant
    Bit rate : 128 Kbps
    Channel(s) : 2 channels
    Sampling rate : 48.0 KHz
    Compression mode : Lossy
    Stream size : 39.2 MiB (7%)
    Alignment : Aligned on interleaves
    Interleave, duration : 40 ms (1.00 video frame)
    Interleave, preload duration : 504 ms
    Writing library : LAME3.99r
    Encoding settings : -m s -V 4 -q 0 -lowpass 17 -b 128


    Скриншоты для ознакомления




    Закон каменных джунглей (2015) WEB-DLRip (серия 1-4 из 8) (обновляемая)
    загрузка...
    Рейтинг →
     (голосов: 1, оценка 4/5, голосовать можно 1 раз )

    Другие торренты по теме:

  • Закон каменных джунглей (2015) WEB-DL [H.264 / 720p-LQ] (серия 1-3 из 8) (обновляемая) скачать через торрент бесплатно
  • OST - Закон Каменных Джунглей (2015) [MP3|56 - 320 кб / с]<Rap, Club, Rock> скачать через торрент бесплатно
  • Закон каменных джунглей (2017) SATRip (сезон 2, серии 1 из 8) (обновляемая)
  • Закон каменных джунглей (2017) WEB-DL [H.264 / 720p-LQ] (сезон 2, серии 1-3 из 8) (обновляемая)


    • Комментарии (0):

      Информация

      Информация

        Посетители, находящиеся в группе Гости, не могут оставлять комментарии в данной новости.

        ↓ Меню




        ↓ Опрос

        Вы добавили сайт в закладки?
        Да
        Нет


        Top 10 за месяц (Фильмы)