.
Авторизация | Регистрация
Хочешь лучшие торренты? Добавь свой email!
Добавить

Торрент скачать бесплатно

» » Альфа-дом / Все дома / Alpha House (2013) WEBRip [H.264 / 720p-LQ] (сезон 2, серии 01 из 10) (Кубик в Кубе) (обновляемая) скачать через торрент бесплатно




    Альфа-дом / Все дома / Alpha House (2013) WEBRip [H.264 / 720p-LQ] (сезон 2, серии 01 из 10) (Кубик в Кубе) (обновляемая) скачать через торрент бесплатно

    Опубликовал: Админ | Дата: 18-03-2015, 04:00 | Просмотров: 305

    Производство: США, Amazon Studios, Sid Kibbitz Productions
    Жанр: драма, комедия
    Перевод: Двухголосый закадровый, профессиональный -Кубик в Кубе
    Релиз: CasStudio
    Рип: NTb
    Работа со звуком: BS666
    Режиссер: Адам Бернштейн

    Актеры
    Джон Гудмен, Кларк Джонсон, Мэтт Мэллой, Марк Консуэлос, Билл Мюррэй, Яра Мартинез, Алисия Сэйбл, Брук Блум

    Описание фильма

    Сериал рассказывает о жизни четырех сенаторов, которые живут в Вашингтоне в арендованном доме все вместе, во время заседаний американского конгресса. Именно здесь они чувствуют себя в безопасности и могут обсудить важные государственные дела, не опасаясь прослушки. Но о месте проживания политиков становится известно корреспондентке известного издания.

    СЭМПЛ
    Продолжительность: ~00: 25: 00 серия
    Качество видео: WEBRip 720p
    Видеокодек: AVC
    Битрейт видео: ~ 2 495 Kbps
    Размер кадра: 1280x720 (16: 9)
    Аудио #1 Rus: AC-3, 48.0 KHz, 6 ch, 640 Kbps, CBR (двухголосый закадровый)
    Аудио #2 Eng: AC-3, 48.0 KHz, 6 ch, 640 Kbps, CBR (оригинал)
    Вид субтитров: вшитые отключаемые
    Язык субтитров: английский
    Внимание: Сериал содержит ненормативную лексику.
    General
    Complete name : F: СериалраздачаAlpha.House.S02.720p.WEBRip.DD5.1.x264-CasStudioAlpha.House.S02E01.The.Love.Doctor.720p.AI.WEBRip.DD5.1.x264-CasStudio.mkv
    Format : Matroska
    File size : 816 MiB
    Duration : 29mn 36s
    Overall bit rate : 3 851 Kbps
    Movie name : Alpha.House.S02E01.The.Love.Doctor.720p.AI.WEBRip.DD5.1.x264-CasStudio
    Encoded date : UTC 2015-03-13 17: 49: 49
    Writing application : mkvmerge v7.7.0 (\'Six Voices\') 32bit built on Feb 28 2015 23: 23: 00
    Writing library : libebml v1.3.1 + libmatroska v1.4.2
    Video
    ID : 1
    Format : AVC
    Format/Info : Advanced Video Codec
    Format profile : High@L4.1
    Format settings, CABAC : Yes
    Format settings, ReFrames : 9 frames
    Muxing mode : Container profile=Unknown@4.1
    Codec ID : V_MPEG4/ISO/AVC
    Duration : 29mn 36s
    Bit rate : 2 495 Kbps
    Width : 1 280 pixels
    Height : 720 pixels
    Display aspect ratio : 16: 9
    Frame rate : 23.976 fps
    Color space : YUV
    Chroma subsampling : 4: 2: 0
    Bit depth : 8 bits
    Scan type : Progressive
    Bits/(Pixel*Frame) : 0.113
    Stream size : 528 MiB (65%)
    Writing library : x264 core 142 r2453 ea0ca51
    Encoding settings : cabac=1/ref=9/deblock=1: -3: -2/analyse=0x3: 0x133/me=umh/subme=10/psy=1/psy_rd=0.95: 0.00/mixed_ref=1/me_range=48/chroma_me=1/trellis=2/8x8dct=1/cqm=0/deadzone=21, 11/fast_pskip=0/chroma_qp_offset=-2/threads=12/lookahead_threads=2/sliced_threads=0/nr=0/decimate=0/interlaced=0/bluray_compat=0/constrained_intra=0/bframes=7/b_pyramid=2/b_adapt=2/b_bias=0/direct=3/weightb=1/open_gop=0/weightp=2/keyint=250/keyint_min=24/scenecut=40/intra_refresh=0/rc_lookahead=250/rc=crf/mbtree=1/crf=16.5/qcomp=0.65/qpmin=0/qpmax=69/qpstep=4/vbv_maxrate=38000/vbv_bufsize=30000/crf_max=0.0/nal_hrd=none/filler=0/ip_ratio=1.40/aq=1: 0.80
    Language : English
    Audio #1
    ID : 2
    Format : AC-3
    Format/Info : Audio Coding 3
    Mode extension : CM (complete main)
    Codec ID : A_AC3
    Duration : 29mn 36s
    Bit rate mode : Constant
    Bit rate : 640 Kbps
    Channel(s) : 6 channels
    Channel positions : Front: L C R, Side: L R, LFE
    Sampling rate : 48.0 KHz
    Bit depth : 16 bits
    Stream size : 136 MiB (17%)
    Language : Russian
    Audio #2
    ID : 3
    Format : AC-3
    Format/Info : Audio Coding 3
    Mode extension : CM (complete main)
    Codec ID : A_AC3
    Duration : 29mn 36s
    Bit rate mode : Constant
    Bit rate : 640 Kbps
    Channel(s) : 6 channels
    Channel positions : Front: L C R, Side: L R, LFE
    Sampling rate : 48.0 KHz
    Bit depth : 16 bits
    Stream size : 136 MiB (17%)
    Language : English
    Text
    ID : 4
    Format : UTF-8
    Codec ID : S_TEXT/UTF8
    Codec ID/Info : UTF-8 Plain Text
    Language : English


    Скриншоты для ознакомления




    Альфа-дом/Все дома/Alpha House (2013) WEBRip [H.264/720p-LQ] (сезон 2, серии 01 из 10) (Кубик в Кубе) (обновляемая)
    загрузка...
    Рейтинг →
     (голосов: 1, оценка 3/5, голосовать можно 1 раз )

    Другие торренты по теме:

  • Все дома / Альфа-дом / Alpha House (2013) WEBRip [H.264 / 720p] (Сезон 1, серии 01-02 из 11) (Кубик в Кубе) (обновляемая) скачать через торрент бесплатно
  • Альфа-дом / Все дома / Alpha House (2013) WEBRip (Сезон 1, серии 1-2 из 11) (Кубик в Кубе) (обновляемая)
  • Альфа-дом / Все дома / Alpha House (2013) WEB-DL [H.264 / 720p-LQ] (сезон 1, серии 1-11 из 11) (HamsterStudio)
  • Альфа-дом / Все дома / Alpha House (2014) WEB-DLRip (Сезон 2, серии 1-4 из 10) (HamsterStudio) (обновляемая) скачать через торрент бесплатно


    • Комментарии (0):

      Информация

      Информация

        Посетители, находящиеся в группе Гости, не могут оставлять комментарии в данной новости.

        ↓ Меню




        ↓ Опрос

        Вы добавили сайт в закладки?
        Да
        Нет


        Top 10 за месяц (Фильмы)