.
Авторизация | Регистрация
Хочешь лучшие торренты? Добавь свой email!
Добавить

Торрент скачать бесплатно

» » Родина (2015) HDTVRip [H.264 / 720p-LQ] (серии 1- из 12) (обновляемая) скачать через торрент бесплатно




    Родина (2015) HDTVRip [H.264 / 720p-LQ] (серии 1- из 12) (обновляемая) скачать через торрент бесплатно

    Опубликовал: Админ | Дата: 18-03-2015, 04:00 | Просмотров: 135

    Производство: ВайТ Медиа, Россия
    Жанр: детектив
    Режиссер: Павел Лунгин

    Актеры
    Владимир Машков, Виктория Исакова, Мария Миронова, Сергей Маковецкий, Андрей Мерзликин, Мария Шалаева, Тимофей Трибунцев, Валериу Андриуцэ, Алиса Хазанова, Софья Хилькова, Эрик Холявко-Гришин, Владимир Вдовиченков, Юсуп Бахшиев, Аркадий Парсегов, Алексей Нестеренко, Ирина Вербицкая, Алексей Коваль, Саид Багов, Андрей Межулис, Рамиля Искандер, Даша Русакова, Сергей Макаров (IV), Алла Малкова, Илья Исаев

    Описание фильма

    В центре сюжета — противостояние майора Алексея Брагина и эксперта-аналитика контртеррористического центра — Анны Зиминой.
    В ходе спецоперации на Северном Кавказе уничтожен лагерь по подготовке террористов и захвачен бункер, в котором обнаружен изможденный, прикованный к стене, заросший бородой человек. Это майор, Алексей Брагин. Шесть лет назад попав в засаду и потеряв большую часть товарищей, Брагин попадает в плен. Его признают пропавшим без вести. Уезжая в последнюю командировку, Брагин оставил в Москве семью — жену Елену, трехлетнего сына Ивана и девятилетнюю дочь Катю.
    Теперь он возвращается в мирную жизнь, где его уже, к сожалению, перестали ждать. Брагин пытается восстановить отношения с женой и дочерью, сблизиться с сыном, но кроме очевидных сложностей, мы видим и понимаем, что у него есть какая-то тайна, которую он тщательно скрывает даже от самых близких.
    Несмотря на ореол героя, после первых же допросов Брагина, Анна Зимина начинает подозревать, что тот завербован террористами. Самое интересное в это истории, что об этом Кличко ничего не знал. Основываясь на собственном опыте и привычно интуиции, Анна старается разгадать тайну Брагина.

    Дата российской премьеры: 16.03.2015
    Продолжительность: ~ 01: 10: 00 серия
    Качество видео: HDTVRip
    Видеокодек: MPEG-4 AVC/H.264
    Битрейт видео: ~3700 Kbps
    Размер кадра: 1280x720 (16: 9)
    Аудиокодек: AC3
    Битрейт аудио: 2 ch, 192 Kbps
    Код:
    Общее
    Уникальный идентификатор : 201789009246546067710803948671333177375 (0x97CF2647F7528AB1AA018810B1AE181F)
    Полное имя : E:DOWNLOADSРодина (2015) HDTVRip 720Родина - 01 серия.mkv
    Формат : Matroska
    Версия формата : Version 4/Version 2
    Размер файла : 1, 85 Гбайт
    Продолжительность : 1 ч. 8 м.
    Общий поток : 3887 Кбит/сек
    Дата кодирования : UTC 2015-03-17 18:54:41
    Программа кодирования : mkvmerge v6.1.0 (\'Old Devil\') built on Mar 4 2013 09:10:42
    Библиотека кодирования : libebml v1.3.0 + libmatroska v1.4.0
    Видео
    Идентификатор : 1
    Формат : AVC
    Формат/Информация : Advanced Video Codec
    Профиль формата :High@L4.1
    Параметр CABAC формата : Да
    Параметр ReFrames формата : 8 кадров
    Идентификатор кодека : V_MPEG4/ISO/AVC
    Продолжительность : 1 ч. 8 м.
    Битрейт : 3695 Кбит/сек
    Ширина : 1280 пикселей
    Высота : 720 пикселей
    Соотношение сторон : 16:9
    Режим частоты кадров : Постоянный
    Частота кадров : 25, 000 кадров/сек
    Цветовое пространство : YUV
    Субдискретизация насыщенности : 4:2:0
    Битовая глубина : 8 бит
    Тип развёртки : Прогрессивная
    Бит/(Пиксели*Кадры) : 0.160
    Размер потока : 1, 72 Гбайт (93%)
    Библиотека кодирования : x264 core 130 r2273 b3065e6
    Настройки программы : cabac=1/ref=8/deblock=1:-3:-3/analyse=0x3:0x133/me=umh/subme=11/psy=1/psy_rd=1.00:0.20/mixed_ref=1/me_range=32/chroma_me=1/trellis=2/8x8dct=1/cqm=0/deadzone=21, 11/fast_pskip=0/chroma_qp_offset=-3/threads=12/lookahead_threads=3/sliced_threads=0/nr=0/decimate=0/interlaced=0/bluray_compat=0/constrained_intra=0/bframes=11/b_pyramid=2/b_adapt=2/b_bias=0/direct=3/weightb=1/open_gop=0/weightp=2/keyint=250/keyint_min=25/scenecut=40/intra_refresh=0/rc=2pass/mbtree=0/bitrate=3695/ratetol=1.0/qcomp=0.60/qpmin=0/qpmax=69/qpstep=4/cplxblur=20.0/qblur=0.5/ip_ratio=1.40/pb_ratio=1.30/aq=1:0.80
    Default : Да
    Forced : Нет
    Аудио
    Идентификатор : 2
    Формат : AC-3
    Формат/Информация : Audio Coding 3
    Расширение режима : CM (complete main)
    Параметр Endianness формата : Big
    Идентификатор кодека : A_AC3
    Продолжительность : 1 ч. О таком странном сюжете не догадывалась даже Бейонсе. 8 м.
    Вид битрейта : Постоянный
    Битрейт : 192 Кбит/сек
    Каналы : 2 канала
    Расположение каналов : Front: L R
    Частота : 48, 0 КГц
    Битовая глубина : 16 бит
    Метод сжатия : С потерями
    Размер потока : 93, 4 Мбайт (5%)
    Default : Да
    Forced : Нет


    Скриншоты для ознакомления




    Родина (2015) HDTVRip [H.264/720p-LQ] (серии 1- из 12) (обновляемая)
    загрузка...
    Рейтинг →
     (голосов: 1, оценка 5/5, голосовать можно 1 раз )

    Другие торренты по теме:

  • Родина (2015) SATRip (сезон 1, серия 1 из 12) (обновляемая) скачать через торрент бесплатно
  • Родина (2015) HDTVRip [H.264] (серии 1- из 12) (обновляемая) скачать через торрент бесплатно
  • Родина (2015) HDTV [H.264 / 1080i-LQ] (сезон 1, серия 1-5 из 12) (обновляемая) скачать через торрент бесплатно
  • ПМР: Потому что Моя Родина (2015) HDTV [MP4|1280x720] скачать через торрент бесплатно
  • Родина (2015) WEB-DLRip скачать через торрент бесплатно
  • Родина (2015) WEB-DL [H.264 / 720p-LQ] скачать через торрент бесплатно
  • Родина (2015) WEB-DL [H.264 / 1080p-LQ] скачать через торрент бесплатно
  • Родина (2015) WEB-DL [1080p] ATV скачать через торрент бесплатно


    • Комментарии (0):

      Информация

      Информация

        Посетители, находящиеся в группе Гости, не могут оставлять комментарии в данной новости.

        ↓ Меню




        ↓ Опрос

        Вы добавили сайт в закладки?
        Да
        Нет


        Top 10 за месяц (Фильмы)