.
Авторизация | Регистрация
Хочешь лучшие торренты? Добавь свой email!
Добавить

Торрент скачать бесплатно

» » Родина (2015) SATRip (сезон 1, серия 1 из 12) (обновляемая) скачать через торрент бесплатно




    Родина (2015) SATRip (сезон 1, серия 1 из 12) (обновляемая) скачать через торрент бесплатно

    Опубликовал: Админ | Дата: 17-03-2015, 04:00 | Просмотров: 131

    Производство: Россия
    Жанр: драма, детектив
    Релиз от: -=DeMoH=-
    Режиссер: Павел Лунгин

    Актеры
    Владимир Машков, Виктория Исакова, Мария Миронова (II), Сергей Маковецкий, Андрей Мерзликин, Мария Шалаева, Тимофей Трибунцев, Валериу Андриуцэ, Алиса Хазанова, Софья Хилькова, Эрик Холявко-Гришин, Владимир Вдовиченков, Юсуп Бахшиев, Аркадий Парсегов, Алексей Нестеренко, Ирина Вербицкая, Алексей Коваль, Грегори-Саид Багов, Андрей Межулис, Рамиля Искандер, Даша Русакова, Сергей Макаров (IV), Алла Малкова, Илья Исаев.

    Описание фильма

    В центре сюжета — противостояние майора Алексея Брагина и эксперта-аналитика контртеррористического центра — Анны Зиминой.
    В ходе спецоперации на Северном Кавказе уничтожен лагерь по подготовке террористов и захвачен бункер, в котором обнаружен изможденный, прикованный к стене, заросший бородой человек. Белая горячка, сказал кто то из толпы, к чему не понятно. Это майор, Алексей Брагин. Шесть лет назад попав в засаду и потеряв большую часть товарищей, Брагин попадает в плен. О таком странном сюжете не догадывалась даже ВиаГра. Его признают пропавшим без вести. Уезжая в последнюю командировку, Брагин оставил в Москве семью — жену Елену, трехлетнего сына Ивана и девятилетнюю дочь Катю.
    Теперь он возвращается в мирную жизнь, где его уже, к сожалению, перестали ждать. Брагин пытается восстановить отношения с женой и дочерью, сблизиться с сыном, но кроме очевидных сложностей, мы видим и понимаем, что у него есть какая-то тайна, которую он тщательно скрывает даже от самых близких.
    Несмотря на ореол героя, после первых же допросов Брагина, Анна Зимина начинает подозревать, что тот завербован террористами. Основываясь на собственном опыте и по большей части интуиции, Анна старается разгадать тайну Брагина.

    Дата российской премьеры: 16 марта 2015
    Продолжительность: ~01: 10: 00 серия
    Качество видео: SATRip
    Видеокодек: Xvid
    Битрейт видео: ~1870 Кбит/сек
    Размер кадра: 720 x 400
    Аудиокодек: AC-3, 2ch.
    Битрейт аудио: 192 Кбит/сек
    Код:

    Формат : AVI
    Формат/Информация : Audio Video Interleave
    Размер файла : 1007 Мбайт
    Продолжительность : 1 ч. 7 м.
    Общий поток : 2073 Кбит/сек
    Программа кодирования : VirtualDubMod 1.5.10.3 |www.virtualdub-fr.org|| (build 2550/release)
    Библиотека кодирования : VirtualDub build 35491/release
    Видео
    Идентификатор : 0
    Формат : MPEG-4 Visual
    Профиль формата : Advanced Simple@L5
    Параметр BVOP формата : 2
    Параметр QPel формата : Нет
    Параметр GMC формата : Без точки перехода
    Параметр матрицы формата : Default (H.263)
    Идентификатор кодека : XVID
    Идентификатор кодека/Подсказка : XviD
    Продолжительность : 1 ч. 7 м.
    Битрейт : 1871 Кбит/сек
    Ширина : 720 пикселей
    Высота : 400 пикселей
    Соотношение сторон : 16:9
    Частота кадров : 25, 000 кадров/сек
    Цветовое пространство : YUV
    Субдискретизация насыщенности : 4:2:0
    Битовая глубина : 8 бит
    Тип развёртки : Прогрессивная
    Метод сжатия : С потерями
    Бит/(Пиксели*Кадры) : 0.260
    Размер потока : 909 Мбайт (90%)
    Библиотека кодирования : XviD 1.2.1 (UTC 2008-12-04)
    Аудио
    Идентификатор : 1
    Формат : AC-3
    Формат/Информация : Audio Coding 3
    Расширение режима : CM (complete main)
    Параметр Endianness формата : Big
    Идентификатор кодека : 2000
    Продолжительность : 1 ч. 7 м.
    Вид битрейта : Постоянный
    Битрейт : 192 Кбит/сек
    Каналы : 2 канала
    Расположение каналов : Front: L R
    Частота : 48, 0 КГц
    Битовая глубина : 16 бит
    Метод сжатия : С потерями
    Размер потока : 93, 2 Мбайт (9%)
    Выравнивание : Разделение по промежуткам
    Продолжительность промежутка : 40 мс. (1, 00 видеокадр)
    Время предзагрузки промежутка : 500 мс.


    Скриншоты для ознакомления




    Родина (2015) SATRip (сезон 1, серия 1 из 12) (обновляемая)
    загрузка...
    Рейтинг →
     (голосов: 1, оценка 5/5, голосовать можно 1 раз )

    Другие торренты по теме:

  • С чего начинается Родина (2014) SATRip (серии 1-2 из 8) (обновляемая) скачать через торрент бесплатно
  • С чего начинается Родина (2014) HDTV [H.264 / 1080i-LQ] (серии 1-2 из 8) (обновляемая)
  • С чего начинается Родина (2014) HDTVRip (серии 1-2 из 8) (обновляемая)
  • С чего начинается Родина (2014) SATRip [H.264] (Сезон 1, серия 1-4 из 8) (Обновляемая) скачать через торрент бесплатно
  • С чего начинается Родина (2014) HDTVRip [H.264 / 720p-LQ] (серии 1-2 из 8) (обновляемая) скачать через торрент бесплатно
  • Родина / Homeland (2014) WEB-DLRip (сезон 4, серии 1 из 12) Пифагор (Обновляемая) скачать через торрент бесплатно
  • Родина / Чужой среди своих / Homeland (2014) WEB-DL [H.264 / 720p-LQ] (сезон 4, серии 01-02 из 12) (Пифагор) (обновляемая)
  • Родина / Чужой среди своих / Homeland (2014) WEB-DLRip (сезон 4, серии 1 из 12) LostFilm (Обновляемая)


    • Комментарии (0):

      Информация

      Информация

        Посетители, находящиеся в группе Гости, не могут оставлять комментарии в данной новости.

        ↓ Меню




        ↓ Опрос

        Вы добавили сайт в закладки?
        Да
        Нет


        Top 10 за месяц (Фильмы)