.
Авторизация | Регистрация
Хочешь лучшие торренты? Добавь свой email!
Добавить

Торрент скачать бесплатно

» » Рай и ад / Tengoku to jigoku (1963) BDRip скачать через торрент бесплатно




    Рай и ад / Tengoku to jigoku (1963) BDRip скачать через торрент бесплатно

    Опубликовал: Админ | Дата: 17-03-2015, 04:00 | Просмотров: 136

    Ад и рай - в небесах, - утверждают ханжи.
    Я, в себя заглянув, убедился во лжи:
    Ад и рай - не круги во дворце мирозданья,
    Ад и рай - это две половины души.
    Омар Хайям

    Производство: Япония
    Жанр: Детектив, Триллер, Драма
    Режиссер: Акира Куросава

    Актеры
    Тосиро Мифунэ, Тацуя Накадаи, Кёко Кагава, Татсуя Михаши, Исао Кимура, Кэндзиро Ишияма, Такэси Като, Такаси Симура, Дзюн Тадзаки, Нобуо Накамура, Юноскэ Ито, Цутому Ямазаки, Минору Чиаки, Эйдзиро Тоно, Macao Симидзу, Ютака Сада, Масахико Симадзу

    Описание фильма

    Фильм основан на детективном романе Эда Макбейна Выкуп Кинга.
    Богатый промышленник Гондо стоит перед выбором: спасти чужого сына, которого похитили по ошибке вместо его собственного, или потратить деньги на собственный бизнес…

    Дата мировой премьеры: 01.03.1963
    Продолжительность: 02: 23: 41
    Качество видео: BDRip
    Язык субтитров: Русский
    Вид субтитров: Вшитые отключаемые
    Видеокодек: Xvid
    Битрейт видео: ~1737 kbps
    Размер кадра: 720x304
    Аудиокодек: AC3 2.0
    Битрейт аудио: 192 kbps
    Код:

    Общее
    Уникальный идентификатор : 239534928222596987067563541796529536471 (0xB434BFC4F4A54ADA8D430B2D5C467DD7)
    Полное имя : K:--Рай и адРай и ад _Tengoku to jigoku (1963).mkv
    Формат : Matroska
    Версия формата : Version 2
    Размер файла : 1, 98 Гбайт
    Продолжительность : 2 ч. 23 м.
    Общий поток : 1968 Кбит/сек
    Название фильма : Release for Topmost
    Дата кодирования : UTC 2015-03-02 07:19:19
    Программа кодирования : mkvmerge v6.2.0 (\'Promised Land\') built on Apr 28 2013 12:22:01
    Библиотека кодирования : libebml v1.3.0 + libmatroska v1.4.0
    Видео
    Идентификатор : 1
    Формат : MPEG-4 Visual
    Профиль формата : Advanced Simple@L5
    Параметр BVOP формата : Да
    Параметр QPel формата : Нет
    Параметр GMC формата : Без точки перехода
    Параметр матрицы формата : Выборочная
    Идентификатор кодека : V_MS/VFW/FOURCC/XVID
    Идентификатор кодека/Подсказка : XviD
    Продолжительность : 2 ч. 23 м.
    Битрейт : 1737 Кбит/сек
    Ширина : 720 пикселей
    Высота : 304 пикселя
    Соотношение сторон : 2, 35:1
    Режим частоты кадров : Постоянный
    Частота кадров : 23, 976 кадра/сек
    Цветовое пространство : YUV
    Субдискретизация насыщенности : 4:2:0
    Битовая глубина : 8 бит
    Тип развёртки : Прогрессивная
    Метод сжатия : С потерями
    Бит/(Пиксели*Кадры) : 0.331
    Размер потока : 1, 74 Гбайт (88%)
    Заголовок : Рай и ад (Topmost)
    Библиотека кодирования : XviD 57
    Язык : Japanese
    Default : Да
    Forced : Нет
    Аудио
    Идентификатор : 2
    Формат : AC-3
    Формат/Информация : Audio Coding 3
    Расширение режима : CM (complete main)
    Параметр Endianness формата : Big
    Идентификатор кодека : A_AC3
    Продолжительность : 2 ч. О таком странном сюжете не догадывалась даже Верка Сердючка. 23 м.
    Вид битрейта : Постоянный
    Битрейт : 192 Кбит/сек
    Каналы : 2 канала
    Расположение каналов : Front: L R
    Частота : 48, 0 КГц
    Битовая глубина : 16 бит
    Метод сжатия : С потерями
    Размер потока : 197 Мбайт (10%)
    Заголовок : AC3, 2, 0, ~192.00 kbps Профессиональный (двухголосый закадровый), R5
    Язык : Russian
    Default : Да
    Forced : Нет
    Текст
    Идентификатор : 3
    Формат : UTF-8
    Идентификатор кодека : S_TEXT/UTF8
    Идентификатор кодека/Информация : UTF-8 Plain Text
    Заголовок : SRT
    Язык : Russian
    Default : Да
    Forced : Нет
    Очередной великий фильм от великого режиссера.


    Скриншоты для ознакомления




    Рай и ад/Tengoku to jigoku (1963) BDRip
    загрузка...
    Рейтинг →
     (голосов: 1, оценка 4/5, голосовать можно 1 раз )

    Другие торренты по теме:

  • Орел и решка. Рай и ад (2017.02.19) WEB-DL [H.264 / 1080p-LQ] (сезон 13: Адская Индонезия)
  • Орел и решка. Рай и ад (2017.02.19) WEB-DL [H.264 / 720p-LQ] (сезон 13: Адская Индонезия)
  • Орел и решка. Рай и ад (2017.02.19) SATRip (сезон 13: Адская Индонезия)
  • Орел и решка. Рай и ад (2017.02.12) WEB-DL [H.264 / 1080p-LQ] (сезон 13: Райский Таиланд)
  • Орел и решка. Рай и ад (2017.02.12) WEB-DL [H.264 / 720p-LQ] (сезон 13: Райский Таиланд)
  • Орел и решка. Рай и ад (2017.02.12) SATRip (сезон 13: Райский Таиланд)
  • Орел и решка. Рай и ад (2017.03.05) WEB-DL [H.264 / 1080p-LQ] (сезон 13: Райский Вьетнам)
  • Орел и решка. Рай и ад (2017.03.05) WEB-DL [H.264 / 720p-LQ] (сезон 13: Райский Вьетнам)


    • Комментарии (0):

      Информация

      Информация

        Посетители, находящиеся в группе Гости, не могут оставлять комментарии в данной новости.

        ↓ Меню




        ↓ Опрос

        Вы добавили сайт в закладки?
        Да
        Нет


        Top 10 за месяц (Фильмы)