.
Авторизация | Регистрация
Хочешь лучшие торренты? Добавь свой email!
Добавить

Торрент скачать бесплатно

» » Последний человек на Земле / The Last Man on Earth (2015) WEB-DL [H.264 / 720p-LQ] (сезон 1, серии 1-3 из 13) (OMSKBIRD) (обновляемая) скачать через торрент бесплатно




    Последний человек на Земле / The Last Man on Earth (2015) WEB-DL [H.264 / 720p-LQ] (сезон 1, серии 1-3 из 13) (OMSKBIRD) (обновляемая) скачать через торрент бесплатно

    Опубликовал: Админ | Дата: 12-03-2015, 04:00 | Просмотров: 1307

    Производство: США 20th Century Fox Television
    Жанр: комедия, фантастика
    Перевод: Двуголосый закадровый, любительский |OMSKBIRD
    Вид субтитров: вшитые отключаемые
    Язык субтитров: английский
    Режиссер: Фил Лорд, Кристофер Миллер, Питер Атенсио

    Актеры
    Уилл Форте, Кристен Шаал, Мэл Родригез, Клеопатра Коулмэн, Дженьюэри Джонс и др.

    Описание фильма

    Фил Миллер когда-то был просто обычным парнем, который любил свою семью и ненавидел свою работу в банке — теперь он последняя надежда человечества. О таком странном сюжете не догадывалась даже Настя Каменских. Найдет ли он когда-нибудь другого живого человека на планете?

    Дата мировой премьеры: 1 марта 2015
    Продолжительность: ~ 00: 22: 00 серия
    Качество видео: WEB-DL 720p
    СЭМПЛ
    Видеокодек: MPEG-4 AVC/H.264
    Битрейт видео: ~4000 Кбит/сек
    Размер кадра: 1280x720 (1.778)
    Аудио rus: AC-3, 48 KHz, 6 ch, 384 kbps - двуголосый закадровый|OmskBird
    Аудио eng: AC-3, 48 KHz, 6 ch, 384 kbps - оригинал
    Код:

    Общее
    Уникальный идентификатор : 175364579555091837496395693246475866797 (0x83EDFD4F8B650500BEE310686A1712AD)
    Полное имя : F:FilmsThe.Last.Man.on.Earth.S01The.Last.Man.on.Earth.S01E01E02.720p.WEB-DL.DD5.1.mkv
    Формат : Matroska
    Версия формата : Version 4/Version 2
    Размер файла : 1, 53 Гбайт
    Продолжительность : 45 м.
    Общий поток : 4864 Кбит/сек
    Дата кодирования : UTC 2015-03-11 14:07:56
    Программа кодирования : mkvmerge v7.7.0 (\'Six Voices\') 64bit built on Feb 28 2015 23:39:33
    Библиотека кодирования : libebml v1.3.1 + libmatroska v1.4.2
    DURATION : 00:45:01.120000000
    NUMBER_OF_FRAMES : 84410
    NUMBER_OF_BYTES : 129653760
    _STATISTICS_WRITING_APP : mkvmerge v7.7.0 (\'Six Voices\') 64bit built on Feb 28 2015 23:39:33
    _STATISTICS_WRITING_DATE_UTC : 2015-03-11 14:07:56
    _STATISTICS_TAGS : BPS DURATION NUMBER_OF_FRAMES NUMBER_OF_BYTES
    Видео
    Идентификатор : 1
    Формат : AVC
    Формат/Информация : Advanced Video Codec
    Профиль формата :High@L3.1
    Параметр CABAC формата : Нет
    Параметр ReFrames формата : 2 кадра
    Идентификатор кодека : V_MPEG4/ISO/AVC
    Продолжительность : 45 м.
    Битрейт : 4000 Кбит/сек
    Ширина : 1280 пикселей
    Высота : 720 пикселей
    Соотношение сторон : 16:9
    Режим частоты кадров : Постоянный
    Частота кадров : 23, 976 кадра/сек
    Цветовое пространство : YUV
    Субдискретизация насыщенности : 4:2:0
    Битовая глубина : 8 бит
    Тип развёртки : Прогрессивная
    Бит/(Пиксели*Кадры) : 0.181
    Размер потока : 1, 26 Гбайт (82%)
    Язык : English
    Default : Да
    Forced : Нет
    Основные цвета : BT.709
    Характеристики трансфера : BT.709
    Коэффициенты матрицы : BT.709
    Аудио #1
    Идентификатор : 2
    Формат : AC-3
    Формат/Информация : Audio Coding 3
    Расширение режима : CM (complete main)
    Параметр Endianness формата : Big
    Идентификатор кодека : A_AC3
    Продолжительность : 45 м.
    Вид битрейта : Постоянный
    Битрейт : 384 Кбит/сек
    Каналы : 6 каналов
    Расположение каналов : Front: L C R, Side: L R, LFE
    Частота : 48, 0 КГц
    Битовая глубина : 16 бит
    Метод сжатия : С потерями
    Размер потока : 124 Мбайт (8%)
    Заголовок : OmskBird
    Язык : Russian
    Default : Да
    Forced : Нет
    Аудио #2
    Идентификатор : 3
    Формат : AC-3
    Формат/Информация : Audio Coding 3
    Расширение режима : CM (complete main)
    Параметр Endianness формата : Big
    Идентификатор кодека : A_AC3
    Продолжительность : 45 м.
    Вид битрейта : Постоянный
    Битрейт : 384 Кбит/сек
    Каналы : 6 каналов
    Расположение каналов : Front: L C R, Side: L R, LFE
    Частота : 48, 0 КГц
    Битовая глубина : 16 бит
    Метод сжатия : С потерями
    Размер потока : 124 Мбайт (8%)
    Язык : English
    Default : Нет
    Forced : Нет
    Текст
    Идентификатор : 4
    Формат : UTF-8
    Идентификатор кодека : S_TEXT/UTF8
    Идентификатор кодека/Информация : UTF-8 Plain Text
    Заголовок : CC
    Язык : English
    Default : Нет
    Forced : Нет


    Скриншоты для ознакомления




    Последний человек на Земле/The Last Man on Earth (2015) WEB-DL [H.264/720p-LQ] (сезон 1, серии 1-3 из 13) (OMSKBIRD) (обновляемая)
    загрузка...
    Рейтинг →
     (голосов: 1, оценка 3/5, голосовать можно 1 раз )

    Другие торренты по теме:

  • Последний человек на Земле / The Last Man on Earth (2015) WEB-DLRip (сезон 1, серии 1-2 из 10) BaibaKo (обновляемая) скачать через торрент бесплатно
  • Последний человек на Земле / The Last Man on Earth (2015) WEB-DLRip (сезон 1, серии 1-2 из 10) Кубик в Кубе (обновляемая) скачать через торрент бесплатно
  • Последний человек на Земле / The Last Man on Earth (2015) WEB-DLRip (Сезон 1, серии 1-3 из 10) (Кубик в Кубе) (обновляемая) скачать через торрент бесплатно
  • Последний человек на Земле / The Last Man on Earth (2015) WEB-DL [H.264 / 720p-LQ] (Сезон 1, серии 1-4 из 12) (BaibaKo) (обновляемая) скачать через торрент бесплатно
  • Последний человек на Земле / The Last Man on Earth (2015) WEB-DLRip (сезон 1, серии 1-10 из 13) (OMSKBIRD records) (обновляемая) скачать через торрент бесплатно
  • Последний человек на Земле / The Last Man on Earth (2015) WEB-DLRip (сезон 2, серии 1 из 13) Кубик в Кубе (обновляемая) скачать через торрент бесплатно
  • Последний человек на Земле / The Last Man on Earth (2015) WEB-DL [H.264 / 1080p-LQ] (сезон 2, серии 1 из 13) BaibaKo (обновляемая) скачать через торрент бесплатно
  • Последний человек на Земле / The Last Man on Earth (2015) WEB-DLRip (сезон 2, серии 1 из 13) BaibaKo (обновляемая) скачать через торрент бесплатно


    • Комментарии (0):

      Информация

      Информация

        Посетители, находящиеся в группе Гости, не могут оставлять комментарии в данной новости.

        ↓ Меню




        ↓ Опрос

        Вы добавили сайт в закладки?
        Да
        Нет


        Top 10 за месяц (Фильмы)