.
Авторизация | Регистрация
Хочешь лучшие торренты? Добавь свой email!
Добавить

Торрент скачать бесплатно

» » Мотель Бейтса / Bates Motel (2015) WEB-DLRip (сезон 3, серии 1 из 10) NewStudio (обновляемая) скачать через торрент бесплатно




    Мотель Бейтса / Bates Motel (2015) WEB-DLRip (сезон 3, серии 1 из 10) NewStudio (обновляемая) скачать через торрент бесплатно

    Опубликовал: Админ | Дата: 11-03-2015, 04:00 | Просмотров: 130

    Производство: США
    Жанр: ужасы, триллер, детектив
    Перевод: Многоголосый закадровый, профессиональный -NewStudio

    Автор перевода: Александра Цернант
    Сэмпл
    Режиссер: Такер Гейтс

    Актеры
    Вера Фармига, Фредди Хаймор, Кэролайн Мэтьюз, Дженна Романин, Бриттни Уилсон, Диана Банг, Джер Бернс и др.

    Описание фильма

    Шоу снято по мотивам культового фильма Альфреда Хичкока Психо 1960 года и расскажет о жизни Нормана Бейтса и его матери Нормы до событий, рассказанных в первом фильме.
    Продолжительность: ~00: 43: 00 серия
    Качество видео: WEB-DLRip
    Видеокодек: XviD
    Формат: AVI
    Битрейт видео: ~1500 kb/s
    Размер кадра: 720х400 (16: 9)
    Аудио Rus: (MPEG Layer 3, 48, 0 kHz, 2 ch, 128 kb/s) - многоголосый закадровый
    Аудио Eng: (MPEG Layer 3, 48, 0 kHz, 2 ch, 128 kb/s) - оригинал
    Общее
    Полное имя : D: Мотель Бейтса (сезон любимого сериала 3) Bates Motel (2015) WEB-DLRip - NewStudioBates.Motel.s03e01.WEBDLRip.NewStudio.TV.avi
    Формат : AVI
    Формат/Информация : Audio Video Interleave
    Размер файла : 550 Мбайт
    Продолжительность : 43 м.
    Общий поток : 1782 Кбит/сек
    Программа кодирования : VirtualDubMod 1.5.10.2 (build 2540/release)
    Библиотека кодирования : VirtualDubMod build 2540/release
    Видео
    Идентификатор : 0
    Формат : MPEG-4 Visual
    Профиль формата : Advanced Simple@L5
    Параметр BVOP формата : 2
    Параметр QPel формата : Нет
    Параметр GMC формата : Без точки перехода
    Параметр матрицы формата : Default (MPEG)
    Идентификатор кодека : XVID
    Идентификатор кодека/Подсказка : XviD
    Продолжительность : 43 м.
    Битрейт : 1512 Кбит/сек
    Ширина : 720 пикселей
    Высота : 400 пикселей
    Соотношение сторон : 16: 9
    Частота кадров : 23, 976 кадра/сек
    Цветовое пространство : YUV
    Субдискретизация насыщенности : 4: 2: 0
    Битовая глубина : 8 бит
    Тип развёртки : Прогрессивная
    Метод сжатия : С потерями
    Бит/(Пиксели*Кадры) : 0.219
    Размер потока : 467 Мбайт (85%)
    Библиотека кодирования : XviD 64
    Аудио #1
    Идентификатор : 1
    Формат : MPEG Audio
    Версия формата : Version 1
    Профиль формата : Layer 3
    Режим : Joint stereo
    Расширение режима : MS Stereo
    Идентификатор кодека : 55
    Идентификатор кодека/Подсказка : MP3
    Продолжительность : 43 м.
    Вид битрейта : Постоянный
    Битрейт : 128 Кбит/сек
    Каналы : 2 канала
    Частота : 48, 0 КГц
    Метод сжатия : С потерями
    Размер потока : 39, 5 Мбайт (7%)
    Выравнивание : Соединение по промежуткам
    Продолжительность промежутка : 42 мс. (1, 00 видеокадр)
    Время предзагрузки промежутка : 504 мс.
    Аудио #2
    Идентификатор : 2
    Формат : MPEG Audio
    Версия формата : Version 1
    Профиль формата : Layer 3
    Режим : Joint stereo
    Расширение режима : MS Stereo
    Идентификатор кодека : 55
    Идентификатор кодека/Подсказка : MP3
    Продолжительность : 43 м.
    Вид битрейта : Постоянный
    Битрейт : 128 Кбит/сек
    Каналы : 2 канала
    Частота : 48, 0 КГц
    Метод сжатия : С потерями
    Размер потока : 39, 5 Мбайт (7%)
    Выравнивание : Соединение по промежуткам
    Продолжительность промежутка : 42 мс. (1, 00 видеокадр)
    Время предзагрузки промежутка : 504 мс.
    Библиотека кодирования : LAME3.99r
    Настройки программы : -m j -V 4 -q 2 -lowpass 17 -b 128


    Скриншоты для ознакомления




    Мотель Бейтса/Bates Motel (2015) WEB-DLRip (сезон 3, серии 1 из 10) NewStudio (обновляемая)
    загрузка...
    Рейтинг →
     (голосов: 1, оценка 4/5, голосовать можно 1 раз )

    Другие торренты по теме:

  • Мотель Бейтсов / Мотель Бейтса / Bates Motel (2016) WEB-DLRip (сезон 4, серии 1-5 из 10) LostFilm (обновляемая)
  • Мотель Бейтсов / Мотель Бейтса / Bates Motel (2017) WEB-DL [H.264 / 1080p -LQ] (сезон 5, серии 1 из 10) LostFilm (обновляемая)
  • Мотель Бейтсов / Мотель Бейтса / Bates Motel (2017) WEB-DLRip (сезон 5, серии 1 из 10) LostFilm (обновляемая)
  • Мотель Бейтсов / Мотель Бейтса / Bates Motel (2017) WEB-DLRip [H.264 / 1080p -LQ] (сезон 5, серии 1-3 из 10) BaibaKo (обновляемая)
  • Мотель Бейтсов / Мотель Бейтса / Bates Motel (2017) WEB-DLRip (сезон 5, серии 1-6 из 10) NewStudio (обновляемая)
  • Мотель Бейтса / Bates Motel (2015) WEB-DLRip (сезон 3, серии 1 из 10) LostFilm (обновляемая) скачать через торрент бесплатно
  • Мотель Бейтса / Bates Motel (2015) WEB-DL [H.264 / 720p-LQ] (Сезон 3, серия 1 из 10) (NewStudio) (обновляемая) скачать через торрент бесплатно
  • Мотель Бейтса / Bates Motel (2015) WEB-DL [H.264 / 720p-LQ] (Сезон 3, серия 1 из 10) (LostFilm) (обновляемая) скачать через торрент бесплатно


    • Комментарии (0):

      Информация

      Информация

        Посетители, находящиеся в группе Гости, не могут оставлять комментарии в данной новости.

        ↓ Меню




        ↓ Опрос

        Вы добавили сайт в закладки?
        Да
        Нет


        Top 10 за месяц (Фильмы)